请选择 进入手机版 | 继续访问电脑版

中国高清论坛

 找回密码
 立即注册
111
搜索
查看: 1379|回复: 168

[10bit] 古墓丽影.Tomb Raider [2018] 1080p 10bit BluRay AAC7.1 HEVC-Vyndros 4.90GB

  [复制链接]

版主

高清币
8268
金钱
1842
鲜花
6
在线时间
331 小时
最后登录
2018-12-15
发表于 2018-6-4 20:06:07 | 显示全部楼层 |阅读模式
本帖最后由 胧村正 于 2018-7-8 01:19 编辑

◎片  名 Tomb Raider
◎译  名 古墓丽影:源起之战/盗墓者罗拉(港)/古墓奇兵(台)/新古墓丽影
◎年  代 2018
◎产  地 美国
◎类  别 动作/冒险
◎语  言 英语
◎上映日期 2018-03-16(美国/中国大陆)
◎IMDb评分  6.7/10 from 59,632 users
◎IMDb链接  http://www.imdb.com/title/tt1365519/
◎豆瓣评分 6.3/10 from 55,326 users
◎豆瓣链接 https://movie.douban.com/subject/3445906/
◎片  长 1h:57m:50s
◎导  演 罗阿尔·乌索格 Roar Uthaug
◎主  演 艾丽西亚·维坎德 Alicia Vikander
      多米尼克·威斯特 Dominic West
      沃尔顿·戈金斯 Walton Goggins
      吴彦祖 Daniel Wu
      克里斯汀·斯科特·托马斯 Kristin Scott Thomas
      汉娜·乔恩·卡门 Hannah John-Kamen
      尼克·弗罗斯特 Nick Frost
      德里克·雅各比 Derek Jacobi
      安东尼奥·阿克儿 Antonio Aakeel
      亚历山大·维尧姆 Alexandre Willaume
      杰美·温斯顿 Jaime Winston
      迈克尔·奥拜奥拉 Michael Obiora
      艾米丽·凯里 Emily Carey
      肯尼思·霍 Kenneth Fok

◎简  介

  劳拉(艾丽西亚·维坎德 Alicia Vikander 饰)的父亲一生都致力于研究古墓,在劳拉尚且年幼的时候,父亲在一场冒险之中失踪了。一晃眼多年过去,劳拉一直拒绝承认父亲已死的消息,也拒绝接手父亲手下的商业帝国。
  一次偶然中,劳拉发现了父亲遗留下的冒险笔记,父亲希望劳拉能把这些资料付之一炬,但为了寻找父亲的下落,劳拉决定寻找笔记中记载的岛屿。劳拉找到了名为陆仁(吴彦祖 饰)的男子,两人结伴踏上了旅途。刚一上岛,劳拉和陆仁就遇见了一直和父亲作对的马赛亚斯(沃特·戈金斯 Walton Goggins 饰)以及他的雇佣兵团队。马赛亚斯一心想要找到古墓的踪迹,不惜杀死了不肯透露半点消息的劳拉的父亲,如今,劳拉亦落入了他的魔爪之中,会遭遇怎样的命运呢?

General
Format : Matroska
Format version : Version 4 / Version 2
File size : 4.90 GiB
Duration : 1 h 57 min
Overall bit rate : 5 956 kb/s
Movie name : Tomb Raider
Encoded date : UTC 2018-06-04 08:12:02
Writing application : mkvmerge v23.0.0 ('The Bride Said No') 64-bit
Writing library : libebml v1.3.6 + libmatroska v1.4.9
Writing frontend : StaxRip v1.7.0.6

Video
ID : 1
Format : HEVC
Format/Info : High Efficiency Video Coding
Format profile : Main [email protected]@Main
Codec ID : V_MPEGH/ISO/HEVC
Duration : 1 h 57 min
Bit rate : 5 308 kb/s
Width : 1 920 pixels
Height : 800 pixels
Display aspect ratio : 2.40:1
Frame rate mode : Constant
Frame rate : 23.976 (24000/1001) FPS
Color space : YUV
Chroma subsampling : 4:2:0
Bit depth : 10 bits
Bits/(Pixel*Frame) : 0.144
Stream size : 4.37 GiB (89%)
Writing library : x265 2.8+10-a7bd0622ece5:[Windows][GCC 7.3.0][64 bit] 10bit
Encoding settings : cpuid=1111039 / frame-threads=3 / numa-pools=12 / wpp / no-pmode / no-pme / no-psnr / ssim / log-level=2 / input-csp=1 / input-res=1920x800 / interlace=0 / total-frames=169521 / level-idc=0 / high-tier=1 / uhd-bd=0 / ref=3 / no-allow-non-conformance / no-repeat-headers / annexb / no-aud / no-hrd / info / hash=0 / no-temporal-layers / open-gop / min-keyint=23 / keyint=250 / gop-lookahead=0 / bframes=8 / b-adapt=2 / b-pyramid / bframe-bias=0 / rc-lookahead=50 / lookahead-slices=5 / scenecut=40 / radl=0 / no-intra-refresh / ctu=64 / min-cu-size=8 / no-rect / no-amp / max-tu-size=32 / tu-inter-depth=1 / tu-intra-depth=1 / limit-tu=0 / rdoq-level=0 / dynamic-rd=0.00 / no-ssim-rd / signhide / no-tskip / nr-intra=0 / nr-inter=0 / no-constrained-intra / no-strong-intra-smoothing / max-merge=3 / limit-refs=3 / no-limit-modes / me=3 / subme=5 / merange=57 / temporal-mvp / weightp / no-weightb / no-analyze-src-pics / deblock=0:0 / sao / no-sao-non-deblock / rd=3 / no-early-skip / no-rskip / no-fast-intra / no-tskip-fast / no-cu-lossless / no-b-intra / no-splitrd-skip / rdpenalty=0 / psy-rd=2.00 / psy-rdoq=0.00 / no-rd-refine / no-lossless / cbqpoffs=0 / crqpoffs=0 / rc=crf / crf=18.0 / qcomp=0.60 / qpstep=4 / stats-write=0 / stats-read=0 / ipratio=1.40 / pbratio=1.30 / aq-mode=3 / aq-strength=1.00 / cutree / zone-count=0 / no-strict-cbr / qg-size=32 / no-rc-grain / qpmax=69 / qpmin=0 / no-const-vbv / sar=0 / overscan=0 / videoformat=5 / range=0 / colorprim=2 / transfer=2 / colormatrix=2 / chromaloc=0 / display-window=0 / max-cll=0,0 / min-luma=0 / max-luma=1023 / log2-max-poc-lsb=8 / vui-timing-info / vui-hrd-info / slices=1 / no-opt-qp-pps / no-opt-ref-list-length-pps / no-multi-pass-opt-rps / scenecut-bias=0.05 / no-opt-cu-delta-qp / no-aq-motion / no-hdr / no-hdr-opt / no-dhdr10-opt / no-idr-recovery-sei / analysis-reuse-level=5 / scale-factor=0 / refine-intra=0 / refine-inter=0 / refine-mv=0 / no-limit-sao / ctu-info=0 / no-lowpass-dct / refine-mv-type=0 / copy-pic=1 / max-ausize-factor=1.0 / no-dynamic-refine / no-single-sei
Default : Yes
Forced : No

Audio
ID : 2
Format : AAC
Format/Info : Advanced Audio Codec
Format profile : LC
Codec ID : A_AAC
Duration : 1 h 57 min
Bit rate : 639 kb/s
Channel(s) : 7 channels
Channel(s)_Original : 8 channels
Channel positions : Front: L C R, Side: L R, Back: L R, LFE
Sampling rate : 48.0 kHz
Frame rate : 46.875 FPS (1024 spf)
Compression mode : Lossy
Stream size : 538 MiB (11%)
Language : English
Default : No
Forced : No

Subtitle
ID : 3
Format : PGS
Muxing mode : zlib
Codec ID : S_HDMV/PGS
Codec ID/Info : Picture based subtitle format used on BDs/HD-DVDs
Duration : 1 h 56 min
Bit rate : 21.8 kb/s
Count of elements : 2244
Stream size : 18.3 MiB (0%)
Language : English
Default : No
Forced : No

游客,如果您要查看本帖隐藏内容请回复
回复

使用道具 举报

人气偶像

高清币
135
金钱
670
鲜花
0
在线时间
91 小时
最后登录
2018-9-6
发表于 2018-6-4 20:07:08 | 显示全部楼层
沙发,
感谢楼主分享精彩电影!
回复 支持 反对

使用道具 举报

天王巨星

高清币
0
金钱
2115
鲜花
0
在线时间
353 小时
最后登录
2018-12-15
发表于 2018-6-4 20:08:40 | 显示全部楼层
每天都来中国高清论坛看看有什么电影!
回复 支持 反对

使用道具 举报

知名艺人

高清币
0
金钱
257
鲜花
0
在线时间
50 小时
最后登录
2018-10-18
发表于 2018-6-4 20:17:47 | 显示全部楼层
其实我一直觉得楼主的品味不错!呵呵!
回复 支持 反对

使用道具 举报

影坛巨星

高清币
508
金钱
9026
鲜花
0
在线时间
1373 小时
最后登录
2018-12-15
发表于 2018-6-4 20:18:42 | 显示全部楼层
感谢楼主分享精彩电影!
回复 支持 反对

使用道具 举报

影坛巨星

高清币
4032
金钱
5912
鲜花
0
在线时间
145 小时
最后登录
2018-8-13
发表于 2018-6-4 20:19:06 | 显示全部楼层
中国高清论坛很棒!
回复 支持 反对

使用道具 举报

人气偶像

高清币
13
金钱
780
鲜花
0
在线时间
149 小时
最后登录
2018-12-14
发表于 2018-6-4 20:20:58 | 显示全部楼层
每天都来中国高清论坛看看有什么电影!
回复 支持 反对

使用道具 举报

天王巨星

高清币
23
金钱
2352
鲜花
0
在线时间
406 小时
最后登录
2018-12-15
发表于 2018-6-4 20:20:58 | 显示全部楼层
很有趣的一部片子
回复 支持 反对

使用道具 举报

金鸡奖主角

高清币
49
金钱
4276
鲜花
0
在线时间
5852 小时
最后登录
2018-12-15
发表于 2018-6-4 20:22:19 | 显示全部楼层
我看不错噢 谢谢楼主!
回复 支持 反对

使用道具 举报

金鸡奖主角

高清币
49
金钱
4276
鲜花
0
在线时间
5852 小时
最后登录
2018-12-15
发表于 2018-6-4 20:22:46 | 显示全部楼层
每天都来中国高清论坛看看有什么电影!
回复 支持 反对

使用道具 举报

懒得打字嘛,点击右侧快捷回复 【右侧内容,后台自定义】
您需要登录后才可以回帖 登录 | 立即注册

本版积分规则

QQ|手机版|小黑屋|中国高清论坛 ( 黔ICP备16007815号-1 )

GMT+8, 2018-12-16 05:33 , Processed in 0.104465 second(s), 35 queries .

Powered by Discuz! X3.4

© 2001-2017 Comsenz Inc.

快速回复 返回顶部 返回列表