请选择 进入手机版 | 继续访问电脑版

中国高清论坛

 找回密码
 立即注册
搜索
查看: 2208|回复: 142

[1080P] 木乃伊合集1999-2017 The Mummy Complete Collection (1999 - 2017) 1080p Bluray x264 Dua

  [复制链接]

超级版主

高清币
1056562
金钱
33040
鲜花
7
在线时间
4477 小时
最后登录
2019-2-16
发表于 2018-9-1 17:38:54 | 显示全部楼层 |阅读模式




◎译  名  木乃伊/盗墓迷城/神鬼传奇
◎片  名  The Mummy
◎年  代  1999
◎国  家  美国
◎类  别  动作/冒险/喜剧/奇幻/恐怖/惊怵
◎语  言  英语
◎IMDB评分 6.9/10 ( 157233票 )
◎IMDB链接 http://www.7176.com/title/tt0120616
◎制作公司  环球影业 [美国]
       Alphaville Films [美国]
◎片  长  124min
◎导  演  斯蒂芬·索莫斯Stephen Sommers
◎编  剧  斯蒂芬·索莫斯Stephen Sommers....screen story and/screenplay
       Nina Wilcox Putnam....story uncredited &
       Richard Schayer....story uncredited
       John L. Balderston....1932 screenplay uncredited
       Lloyd Fonvielle....screen story &
       Kevin Jarre....screen story
       斯蒂芬·索莫斯Stephen Sommers....screenplay

The Mummy (1999) 1080p BluRay x264 Dual Audio [Hindi 640 Kbps DD5.1 - English DD5.1] - Msubs ~ Ranvijay
  1. General
  2. Format                                   : Matroska
  3. Format version                           : Version 4 / Version 2
  4. File size                                : 4.89 GiB
  5. Duration                                 : 2 h 4 min
  6. Overall bit rate                         : 5 608 kb/s
  7. Movie name                               : The Mummy (1999) 1080p BluRay x264 Dual Audio [Hindi 640 Kbps DD5.1 - English DD5.1] - Msubs ~ Ranvijay

  8. Video
  9. ID                                       : 1
  10. Format                                   : AVC
  11. Format/Info                              : Advanced Video Codec
  12. Duration                                 : 2 h 4 min
  13. Bit rate                                 : 4 565 kb/s
  14. Width                                    : 1 920 pixels
  15. Height                                   : 816 pixels
  16. Display aspect ratio                     : 2.35:1
  17. Frame rate mode                          : Constant
  18. Frame rate                               : 23.976 (24000/1001) FPS
  19. Color space                              : YUV
  20. Chroma subsampling                       : 4:2:0
  21. Bit depth                                : 8 bits
  22. Scan type                                : Progressive
  23. Bits/(Pixel*Frame)                       : 0.122
  24. Stream size                              : 3.98 GiB (81%)
  25. Title                                    : ~Ranvijay~

  26. Audio #1
  27. ID                                       : 2
  28. Format                                   : AC-3
  29. Bit rate mode                            : Constant
  30. Bit rate                                 : 640 kb/s
  31. Channel(s)                               : 6 channels
  32. Channel positions                        : Front: L C R, Side: L R, LFE
  33. Title                                    : ~Ranvijay~
  34. Language                                 : Hindi

  35. Audio #2
  36. ID                                       : 3
  37. Format                                   : AC-3
  38. Bit rate mode                            : Constant
  39. Bit rate                                 : 384 kb/s
  40. Channel(s)                               : 6 channels
  41. Channel positions                        : Front: L C R, Side: L R, LFE
  42. Title                                    : ~Ranvijay~
  43. Language                                 : English

  44. Text #1
  45. ID                                       : 4
  46. Format                                   : PGS
  47. Language                                 : Hindi

  48. Text #2
  49. ID                                       : 5
  50. Format                                   : PGS
  51. Language                                 : English

  52. Text #3
  53. ID                                       : 6
  54. Format                                   : UTF-8
  55. Language                                 : English
复制代码













◎译  名  木乃伊归来/盗墓迷城2/木乃伊归来:盗墓谜城/神鬼传奇2
◎片  名  The Mummy Returns
◎年  代  2001
◎国  家  美国
◎类  别  动作 冒险 奇幻 恐怖 惊怵
◎语  言  英语
◎IMDB评分 6.2/10 ( 112780票 )
◎IMDB链接 http://www.7176.com/title/tt0209163
◎制作公司  Alphaville Films [美国]
       Imhotep Productionsuncredited
       环球影业 [美国]
◎片  长  130min
◎导  演  斯蒂芬·索莫斯Stephen Sommers
◎编  剧  斯蒂芬·索莫斯Stephen Sommers....written by
◎主  演  道恩·强森Dwayne Johnson....Mathayus the Scorpion King
       布兰登·费舍Brendan Fraser....Richard 'Rick' O'Connell
       蕾切尔·薇姿Rachel Weisz....Evelyn Carnahan O'Connell/Princess Nefertiri
       弗雷迪·布什Freddie Boath....Alexander 'Alex' O'Connell
       约翰·汉纳John Hannah....Jonathan Carnahan
       阿诺德·沃斯洛Arnold Vosloo....High Priest Imhotep
       奥德·菲尔Oded Fehr....Ardeth Bay
       艾伦·阿姆斯特朗Alun Armstrong....Baltus Hafez
       阿德沃尔·阿吉纽依-艾格拜吉Adewale Akinnuoye-Agbaje....Lock-Nah
       汤姆·菲舍尔Tom Fisher....Spivey
       斯蒂芬·索莫斯Stephen Sommers....Man sitting in the bathtub at Izzy's place (uncredited)
       帕翠西娅·维拉奎兹Patricia Velasquez....Meela Nais/Anck Su Namun
       肖恩·帕克斯Shaun Parkes....Izzy Buttons
       Bruce Byron....Red
       Joe Dixon....Jacques
       Aharon Ipalé....Pharaoh Seti I
       Quill Roberts....Shafek
       Donna Air....Showgirl with Jonathan
       Trevor Lovell....Mountain of Flesh
       Brian Best....British Museum Mummy (uncredited)
       Max Cavalera....Scorpion King (voice) (uncredited)
       Rocky Taylor....Man In Alley (uncredited)
  1. The Mummy Returns (2001) 1080p BluRay x264 Dual Audio [Hindi 640 Kbps DD5.1 - English DD5.1] - Msubs ~ Ranvijay

  2. General
  3. Format                                   : Matroska
  4. Format version                           : Version 4 / Version 2
  5. File size                                : 4.96 GiB
  6. Duration                                 : 2 h 9 min
  7. Overall bit rate                         : 5 481 kb/s
  8. Movie name                               : The Mummy Returns (2001) 1080p BluRay x264 Dual Audio [Hindi 640 Kbps DD5.1 - English DD5.1] - Msubs ~ Ranvijay

  9. Video
  10. ID                                       : 1
  11. Format                                   : AVC
  12. Format/Info                              : Advanced Video Codec
  13. Duration                                 : 2 h 9 min
  14. Bit rate                                 : 4 380 kb/s
  15. Width                                    : 1 920 pixels
  16. Height                                   : 816 pixels
  17. Display aspect ratio                     : 2.35:1
  18. Frame rate mode                          : Constant
  19. Frame rate                               : 23.976 (24000/1001) FPS
  20. Color space                              : YUV
  21. Chroma subsampling                       : 4:2:0
  22. Bit depth                                : 8 bits
  23. Scan type                                : Progressive
  24. Bits/(Pixel*Frame)                       : 0.117
  25. Stream size                              : 3.96 GiB (80%)
  26. Title                                    : ~Ranvijay~

  27. Audio #1
  28. ID                                       : 2
  29. Format                                   : AC-3
  30. Bit rate mode                            : Constant
  31. Bit rate                                 : 640 kb/s
  32. Channel(s)                               : 6 channels
  33. Channel positions                        : Front: L C R, Side: L R, LFE
  34. Title                                    : ~Ranvijay~
  35. Language                                 : Hindi

  36. Audio #2
  37. ID                                       : 3
  38. Format                                   : AC-3
  39. Bit rate mode                            : Constant
  40. Bit rate                                 : 448 kb/s
  41. Channel(s)                               : 6 channels
  42. Channel positions                        : Front: L C R, Side: L R, LFE
  43. Title                                    : ~Ranvijay~
  44. Language                                 : English

  45. Text #1
  46. ID                                       : 4
  47. Format                                   : PGS
  48. Language                                 : English

  49. Text #2
  50. ID                                       : 5
  51. Format                                   : PGS
  52. Language                                 : Hindi

  53. Text #3
  54. ID                                       : 6
  55. Format                                   : UTF-8
  56. Language                                 : English
复制代码













◎译  名  木乃伊3:龙帝之墓/木乃伊3:龙的诅咒/神鬼传奇3(台)/盗墓迷城3(港)
◎片  名  The Mummy: Tomb of the Dragon Emperor
◎年  代  2008
◎国  家  德国 美国
◎类  别  动作 冒险 奇幻 恐怖 惊怵
◎语  言  英语
◎IMDB评分 5.1/10 ( 64096票 )
◎IMDB链接 http://www.7176.com/title/tt0859163
◎制作公司  Alphaville Films [美国]
       Sean Daniel Company
       环球影业 [美国]
       Giant Studios Inc.
       Nowita Pictures
       The Sommers Company [美国]
       相对论传媒公司 [美国]
◎片  长  112min
◎导  演  罗伯·科恩Rob Cohen
◎编  剧  Miles Millar....written by
       Alfred Gough....written by &
       John L. Balderston....1932 screenplay uncredited and
       斯蒂芬·索莫斯Stephen Sommers....2001 screenplay uncredited
◎主  演  布兰登·费舍Brendan Fraser....里克·欧康纳 Rick O'Connell
       李连杰Jet Li....秋王 Emperor Han
       玛丽亚·贝罗Maria Bello....艾薇·欧康纳 Evelyn O'Connell
       约翰·汉纳John Hannah....乔纳森 Jonathan Carnahan
       杨紫琼Michelle Yeoh....紫媛 Zi Juan
       卢克·福特Luke Ford....艾里克斯·欧康纳 Alex O'Connell
       梁洛施Isabella Leung....林 Lin
       黄秋生Anthony Wong....杨将军 General Yang (as Chau Sang Anthony Wong)
       王盛德Russell Wong....郭明 General Ming Guo
       利亚姆·坎宁安Liam Cunningham....疯狗 Mad Dog Maguire
       大卫·卡尔德David Calder....罗哲教授 Prof. Roger Wilson
       孟广美Jessey Meng....Choi
       梁天Liang Tian....Li Zhou
       Albert Kwan....Chu Wah
       吴京Jacky Wu....刺客 Assassin #1 (as Wu Jing)
       Binghua Wei....Assassin #2
       Guo Jing....Assassin #3
       Alison Louder....Woman in Bookstore
       玛西娅·纳萨提尔Marcia Nasatir....Russian Princess
       Emerald Starr....Man in Bar
       Helen Feng....Nightclub Singer
       Stella Maryna Troshyna....Brunette at Imhotep?s
       James Bradford....Butler Jameson
       Daniel Giverin....Benjamin Fry
  1. The Mummy Tomb of the Dragon Emperor (2008) 1080p BluRay x264 Dual Audio [Hindi 640 Kbps DD5.1 - English DD5.1] - Msubs ~ Ranvijay

  2. General
  3. Format                                   : Matroska
  4. Format version                           : Version 4 / Version 2
  5. File size                                : 4.89 GiB
  6. Duration                                 : 1 h 51 min
  7. Overall bit rate                         : 6 262 kb/s
  8. Movie name                               : The Mummy Tomb of the Dragon Emperor (2008) 1080p BluRay x264 Dual Audio [Hindi 640 Kbps DD5.1 - English DD5.1] - Msubs ~ Ranvijay

  9. Video
  10. ID                                       : 1
  11. Format                                   : AVC
  12. Format/Info                              : Advanced Video Codec
  13. Duration                                 : 1 h 51 min
  14. Bit rate                                 : 5 158 kb/s
  15. Width                                    : 1 920 pixels
  16. Height                                   : 800 pixels
  17. Display aspect ratio                     : 2.40:1
  18. Frame rate mode                          : Constant
  19. Frame rate                               : 23.976 (24000/1001) FPS
  20. Color space                              : YUV
  21. Chroma subsampling                       : 4:2:0
  22. Bit depth                                : 8 bits
  23. Scan type                                : Progressive
  24. Bits/(Pixel*Frame)                       : 0.140
  25. Stream size                              : 4.02 GiB (82%)

  26. Audio #1
  27. ID                                       : 2
  28. Format                                   : AC-3
  29. Bit rate mode                            : Constant
  30. Bit rate                                 : 640 kb/s
  31. Channel(s)                               : 6 channels
  32. Channel positions                        : Front: L C R, Side: L R, LFE
  33. Language                                 : Hindi

  34. Audio #2
  35. ID                                       : 3
  36. Format                                   : AC-3
  37. Bit rate mode                            : Constant
  38. Bit rate                                 : 448 kb/s
  39. Channel(s)                               : 6 channels
  40. Channel positions                        : Front: L C R, Side: L R, LFE
  41. Language                                 : English

  42. Text #1
  43. ID                                       : 4
  44. Format                                   : PGS
  45. Stream size                              : 29.5 MiB (1%)
  46. Language                                 : English

  47. Text #2
  48. ID                                       : 5
  49. Format                                   : PGS
  50. Language                                 : Hindi

  51. Text #3
  52. ID                                       : 6
  53. Format                                   : UTF-8
  54. Language                                 : English
复制代码








  1. The Mummy (2017) 1080p BluRay x264 Dual Audio [Hindi DTS 5.1 - English DD5.1] - Msubs ~ Ranvijay

  2. General
  3. Format                                   : Matroska
  4. Format version                           : Version 4 / Version 2
  5. File size                                : 4.96 GiB
  6. Duration                                 : 1 h 50 min
  7. Overall bit rate                         : 6 447 kb/s
  8. Movie name                               : The Mummy (2017) 1080p BluRay x264 Dual Audio [Hindi DTS 5.1 - English DD5.1] - Msubs ~ Ranvijay

  9. Video
  10. ID                                       : 1
  11. Format                                   : AVC
  12. Format/Info                              : Advanced Video Codec
  13. Duration                                 : 1 h 50 min
  14. Bit rate                                 : 5 229 kb/s
  15. Width                                    : 1 920 pixels
  16. Height                                   : 800 pixels
  17. Display aspect ratio                     : 2.40:1
  18. Frame rate mode                          : Constant
  19. Frame rate                               : 23.976 (24000/1001) FPS
  20. Color space                              : YUV
  21. Chroma subsampling                       : 4:2:0
  22. Bit depth                                : 8 bits
  23. Scan type                                : Progressive
  24. Bits/(Pixel*Frame)                       : 0.142
  25. Stream size                              : 4.01 GiB (81%)
  26. Title                                    : ~Ranvijay~

  27. Audio #1
  28. ID                                       : 2
  29. Format                                   : DTS
  30. Bit rate mode                            : Constant
  31. Bit rate                                 : 768 kb/s
  32. Channel(s)                               : 6 channels
  33. Channel positions                        : Front: L C R, Side: L R, LFE
  34. Title                                    : ~Ranvijay~
  35. Language                                 : Hindi

  36. Audio #2
  37. ID                                       : 3
  38. Format                                   : AC-3
  39. Bit rate mode                            : Constant
  40. Bit rate                                 : 448 kb/s
  41. Channel(s)                               : 6 channels
  42. Channel positions                        : Front: L C R, Side: L R, LFE
  43. Title                                    : ~Ranvijay~
  44. Language                                 : English

  45. Text #1
  46. ID                                       : 4
  47. Format                                   : PGS
  48. Title                                    : ~Ranvijay~
  49. Language                                 : English

  50. Text #2
  51. ID                                       : 5
  52. Format                                   : PGS
  53. Title                                    : ~Ranvijay~
  54. Language                                 : Hindi

  55. Text #3
  56. ID                                       : 6
  57. Format                                   : UTF-8
  58. Title                                    : Full
  59. Language                                 : English

  60. Text #4
  61. ID                                       : 7
  62. Format                                   : UTF-8
  63. Title                                    : SDH
  64. Language                                 : English

  65. Text #5
  66. ID                                       : 8
  67. Format                                   : UTF-8
  68. Title                                    : SDH Colored
  69. Language                                 : English
复制代码










游客,如果您要查看本帖隐藏内容请回复



回复

使用道具 举报

知名艺人

高清币
15
金钱
407
鲜花
0
在线时间
74 小时
最后登录
2019-2-12
发表于 2018-9-1 17:40:43 | 显示全部楼层
每天都来中国高清论坛看看有什么电影!
回复 支持 反对

使用道具 举报

金鸡奖主角

高清币
428
金钱
3811
鲜花
0
在线时间
1878 小时
最后登录
2019-2-16
发表于 2018-9-1 17:42:18 | 显示全部楼层
看看怎么样
回复 支持 反对

使用道具 举报

天王巨星

高清币
664
金钱
2080
鲜花
0
在线时间
247 小时
最后登录
2019-2-16
发表于 2018-9-1 17:43:34 | 显示全部楼层
感谢楼主分享精彩电影!
回复 支持 反对

使用道具 举报

永恒神话

高清币
17035
金钱
21497
鲜花
0
在线时间
1192 小时
最后登录
2019-1-29
发表于 2018-9-1 17:45:59 | 显示全部楼层
每天都来中国高清论坛看看有什么电影!
回复 支持 反对

使用道具 举报

超级明星

高清币
793
金钱
6986
鲜花
0
在线时间
2730 小时
最后登录
2019-2-16
发表于 2018-9-1 17:46:01 | 显示全部楼层
中国高清论坛很棒!
回复 支持 反对

使用道具 举报

永恒神话

高清币
17035
金钱
21497
鲜花
0
在线时间
1192 小时
最后登录
2019-1-29
发表于 2018-9-1 17:47:02 | 显示全部楼层
每天都来中国高清论坛看看有什么电影!
回复 支持 反对

使用道具 举报

好莱坞明星

高清币
31
金钱
6194
鲜花
0
在线时间
1011 小时
最后登录
2019-2-16
发表于 2018-9-1 17:50:09 | 显示全部楼层
中国高清论坛很棒!
回复 支持 反对

使用道具 举报

天王巨星

高清币
296
金钱
1844
鲜花
0
在线时间
423 小时
最后登录
2019-2-15
发表于 2018-9-1 17:59:38 | 显示全部楼层
分享不易,感谢楼主的无私
回复 支持 反对

使用道具 举报

VIP贵宾

高清币
3771
金钱
11370
鲜花
0
在线时间
2895 小时
最后登录
2019-2-16
发表于 2018-9-1 18:13:17 | 显示全部楼层
廣東龍門馬到成功!謝謝樓主的無私發佈分享!
回复 支持 反对

使用道具 举报

懒得打字嘛,点击右侧快捷回复 【右侧内容,后台自定义】
您需要登录后才可以回帖 登录 | 立即注册

本版积分规则

QQ|手机版|小黑屋|中国高清论坛 ( 黔ICP备16007815号-1 )

GMT+8, 2019-2-16 23:29 , Processed in 0.105116 second(s), 30 queries .

Powered by Discuz! X3.4

© 2001-2017 Comsenz Inc.

快速回复 返回顶部 返回列表