请选择 进入手机版 | 继续访问电脑版

中国高清论坛

 找回密码
 立即注册
搜索
查看: 688|回复: 153

[惊悚片] 搭车/约车惊魂夜 Ride.2018.1080p.BluRay.x264.DTS-FGT 6.92GB

  [复制链接]

超级版主

高清币
984602
金钱
31280
鲜花
2
在线时间
4178 小时
最后登录
2018-12-19
发表于 2018-12-6 22:54:01 | 显示全部楼层 |阅读模式







◎译  名 搭车/约车惊魂夜
◎片  名 Ride
◎年  代 2018
◎产  地 美国
◎类  别 惊悚
◎语  言 英语
◎上映日期 2018-09-12(柏林奇幻电影节) / 2018-10-05(美国)
◎IMDb评分 4.3/10 from 429 users
◎IMDb链接 http://www.imdb.com/title/tt6237268
◎豆瓣评分 0/10 from 0 users
◎豆瓣链接 https://movie.douban.com/subject/30308419/
◎片  长 79分钟
◎导  演 Jeremy Ungar
◎编  剧 Jeremy Ungar
◎主  演 贝拉·索恩 Bella Thorne
      杰西·厄舍 Jessie Usher
      威尔·伯瑞 Will Brill
      Byron L. Hopkins
      Hailee Keanna Lautenbach
      莎拉琳赛 Sara Lindsey
◎标  签 美国 | 美国电影 | 犯罪 | 惊悚 | 悬疑 | 剧情 | bellathorne | 2018
◎简  介
  优步司机詹姆斯刚把美女乘客送到派对地点,二人相谈甚欢,美女主动问詹姆斯能不能晚点来接她,他欣然答应。在去下一个接单的路上,他不由得暗自窃喜,想入非非;这时上来另一位乘客,陌生男子开始跟他尬聊起来,到了定位地址后仍不下车,并要求詹姆斯开到派对地点载上美女三人一起找夜店继续玩耍。美女上车后,詹姆斯和美女慢慢发现这个陌生男子举止奇怪,但已无法回头,随后二人陷入陌生男子的亡命“猫鼠游戏”中。










  1. Video
  2. ID : 1
  3. Format : AVC
  4. Format/Info : Advanced Video Codec
  5. Format profile : High@L4.1
  6. Format settings : CABAC / 4 Ref Frames
  7. Format settings, CABAC : Yes
  8. Format settings, ReFrames : 4 frames
  9. Codec ID : V_MPEG4/ISO/AVC
  10. Duration : 1 h 16 min
  11. Bit rate : 11.5 Mb/s
  12. Width : 1 920 pixels
  13. Height : 800 pixels
  14. Display aspect ratio : 2.40:1
  15. Frame rate mode : Constant
  16. Frame rate : 23.976 (24000/1001) FPS
  17. Color space : YUV
  18. Chroma subsampling : 4:2:0
  19. Bit depth : 8 bits
  20. Scan type : Progressive
  21. Bits/(Pixel*Frame) : 0.312
  22. Stream size : 6.12 GiB (88%)
  23. Title : Ride.2018.1080p.BluRay.x264.DTS-FGT
  24. Writing library : x264 core 148 r2795M aaa9aa8
  25. Encoding settings : cabac=1 / ref=4 / deblock=1:-2:-2 / analyse=0x3:0x113 / me=umh / subme=9 / psy=1 / psy_rd=1.00:0.15 / mixed_ref=1 / me_range=16 / chroma_me=1 / trellis=2 / 8x8dct=1 / cqm=0 / deadzone=21,11 / fast_pskip=1 / chroma_qp_offset=-3 / threads=72 / lookahead_threads=3 / sliced_threads=0 / nr=0 / decimate=1 / interlaced=0 / bluray_compat=0 / constrained_intra=0 / bframes=3 / b_pyramid=2 / b_adapt=1 / b_bias=0 / direct=3 / weightb=1 / open_gop=0 / weightp=2 / keyint=250 / keyint_min=25 / scenecut=40 / intra_refresh=0 / rc_lookahead=50 / rc=2pass / mbtree=1 / bitrate=11500 / ratetol=1.0 / qcomp=0.60 / qpmin=0 / qpmax=69 / qpstep=4 / cplxblur=20.0 / qblur=0.5 / vbv_maxrate=31250 / vbv_bufsize=31250 / nal_hrd=none / filler=0 / ip_ratio=1.40 / aq=1:1.00
  26. Language : English
  27. Default : Yes
  28. Forced : No

  29. Audio
  30. ID : 2
  31. Format : DTS
  32. Format/Info : Digital Theater Systems
  33. Codec ID : A_DTS
  34. Duration : 1 h 16 min
  35. Bit rate mode : Constant
  36. Bit rate : 1 509 kb/s
  37. Channel(s) : 6 channels
  38. Channel layout : C L R Ls Rs LFE
  39. Sampling rate : 48.0 kHz
  40. Frame rate : 93.750 FPS (512 SPF)
  41. Bit depth : 24 bits
  42. Compression mode : Lossy
  43. Stream size : 822 MiB (12%)
  44. Title : Ride.2018.1080p.BluRay.x264.DTS-FGT
  45. Language : English
  46. Default : No
  47. Forced : No

  48. Text
  49. ID : 3
  50. Format : UTF-8
  51. Codec ID : S_TEXT/UTF8
  52. Codec ID/Info : UTF-8 Plain Text
  53. Duration : 1 h 12 min
  54. Bit rate : 81 b/s
  55. Count of elements : 1362
  56. Stream size : 43.4 KiB (0%)
  57. Language : English
  58. Default : Yes
  59. Forced : No

  60. Menu
  61. 00:00:00.000 : en:Chapter 00
  62. 00:09:05.253 : en:Chapter 01
  63. 00:17:26.211 : en:Chapter 02
  64. 00:24:13.326 : en:Chapter 03
  65. 00:34:18.848 : en:Chapter 04
  66. 00:54:29.474 : en:Chapter 05
  67. 01:03:52.954 : en:Chapter 06
  68. 01:13:24.358 : en:Chapter 07

  69.               
复制代码








下载地址


下载软件:115,ut,bt彗星,百度离线,迅雷极速.(以上不会自行百度)

游客,如果您要查看本帖隐藏内容请回复





蓝光电影




回复

使用道具 举报

superstar

高清币
3551
金钱
7858
鲜花
0
在线时间
1569 小时
最后登录
2018-12-19
发表于 2018-12-6 22:58:01 | 显示全部楼层
楼主发贴辛苦了,谢谢楼主分享!我觉得中国高清论坛是注册对了!
回复 支持 反对

使用道具 举报

超级明星

高清币
722
金钱
6751
鲜花
0
在线时间
2443 小时
最后登录
2018-12-19
发表于 2018-12-6 23:13:59 | 显示全部楼层

感谢楼主的无私分享!要想中国高清论坛好 就靠你我他
回复 支持 反对

使用道具 举报

永恒神话

高清币
14982
金钱
26524
鲜花
0
在线时间
1833 小时
最后登录
2018-12-19
发表于 2018-12-6 23:18:46 | 显示全部楼层
谢谢发片,辛苦了
回复 支持 反对

使用道具 举报

金鸡奖主角

高清币
306
金钱
3409
鲜花
0
在线时间
474 小时
最后登录
2018-12-17
发表于 2018-12-6 23:18:49 | 显示全部楼层

这东西我收了!谢谢楼主!中国高清论坛真好!
回复 支持 反对

使用道具 举报

天王巨星

高清币
84
金钱
2997
鲜花
0
在线时间
410 小时
最后登录
2018-12-19
发表于 2018-12-6 23:19:24 | 显示全部楼层
感谢分享                                         
回复 支持 反对

使用道具 举报

superstar

高清币
3124
金钱
17428
鲜花
0
在线时间
1534 小时
最后登录
2018-12-19
发表于 2018-12-6 23:26:53 | 显示全部楼层
楼主发贴辛苦了,谢谢楼主分享!我觉得中国高清论坛是注册对了!
回复 支持 反对

使用道具 举报

VIP贵宾

高清币
322
金钱
517
鲜花
0
在线时间
165 小时
最后登录
2018-12-17
发表于 2018-12-6 23:31:51 | 显示全部楼层
回复 支持 反对

使用道具 举报

知名艺人

高清币
79
金钱
221
鲜花
0
在线时间
24 小时
最后登录
2018-12-18
发表于 2018-12-6 23:33:46 | 显示全部楼层
楼主发贴辛苦了,谢谢楼主分享!我觉得中国高清论坛是注册对了!
回复 支持 反对

使用道具 举报

知名艺人

高清币
71
金钱
43
鲜花
0
在线时间
5 小时
最后登录
2018-12-6
发表于 2018-12-6 23:35:27 | 显示全部楼层
楼主发贴辛苦了,谢谢楼主分享!我觉得中国高清论坛是注册对了!
回复 支持 反对

使用道具 举报

懒得打字嘛,点击右侧快捷回复 【右侧内容,后台自定义】
您需要登录后才可以回帖 登录 | 立即注册

本版积分规则

QQ|手机版|小黑屋|中国高清论坛 ( 黔ICP备16007815号-1 )

GMT+8, 2018-12-19 15:30 , Processed in 0.119195 second(s), 31 queries .

Powered by Discuz! X3.4

© 2001-2017 Comsenz Inc.

快速回复 返回顶部 返回列表