请选择 进入手机版 | 继续访问电脑版

中国高清论坛

 找回密码
 立即注册
搜索
查看: 290|回复: 48

[惊悚片] 皮湖 Pihu.2018.1080p.WEBRip.Hindi.AAC.MoviesMB

[复制链接]

区域版主

高清币
14243
金钱
33423
鲜花
-88
在线时间
10811 小时
最后登录
2019-1-16
发表于 2019-1-12 22:34:24 | 显示全部楼层 |阅读模式



◎译  名 皮湖
◎片  名 Pihu
◎年  代 2018
◎国  家 印度
◎类  别 剧情/惊悚
◎语  言 印度语
◎IMDb评分 6.5/10 from 218 users
◎IMDB链接 https://www.imdb.com/title/tt8458202
◎片  长 1h 29min
◎导  演 Kapri Vinod
◎主  演 Pihu Myra Vishwakarma
       Prerna Vishwakarma




◎简  介

  The social thriller starring the two year baby girl. She is living in a home where the adults are going through a complicated phase. Being a toddler, she is occasionally trapped in the accidental situations.
  1. Video
  2. ID : 1
  3. Format : AVC
  4. Format/Info : Advanced Video Codec
  5. Format profile : [email]High@L4.2[/email]
  6. Format settings : CABAC / 5 Ref Frames
  7. Format settings, CABAC : Yes
  8. Format settings, RefFrames : 5 frames
  9. Codec ID : V_MPEG4/ISO/AVC
  10. Duration : 1 h 30 min
  11. Bit rate : 1 800 kb/s
  12. Width : 1 920 pixels
  13. Height : 808 pixels
  14. Display aspect ratio : 2.40:1
  15. Frame rate mode : Constant
  16. Frame rate : 24.000 FPS
  17. Color space : YUV
  18. Chroma subsampling : 4:2:0
  19. Bit depth : 8 bits
  20. Scan type : Progressive
  21. Bits/(Pixel*Frame) : 0.048
  22. Stream size : 1.13 GiB (90%)
  23. Title : MoviesMB
  24. Writing library : x264 core 157 r2935 545de2f
  25. Language : Hindi
  26. Default : Yes
  27. Forced : No
  28. Color range : Limited
  29. Color primaries : Generic film
  30. Transfer characteristics : BT.709
  31. Matrix coefficients : BT.709

  32. Audio
  33. ID : 2
  34. Format : AAC
  35. Format/Info : Advanced Audio Codec
  36. Format profile : LC
  37. Codec ID : A_AAC-2
  38. Duration : 1 h 30 min
  39. Bit rate : 192 kb/s
  40. Channel(s) : 2 channels
  41. Channel positions : Front: L R
  42. Sampling rate : 48.0 kHz
  43. Frame rate : 46.875 FPS (1024 SPF)
  44. Compression mode : Lossy
  45. Delay relative to video : 1 ms
  46. Stream size : 124 MiB (10%)
  47. Title : MoviesMB
  48. Language : English
  49. Default : Yes
  50. Forced : No

  51. Text
  52. ID : 3
  53. Format : UTF-8
  54. Codec ID : S_TEXT/UTF8
  55. Codec ID/Info : UTF-8 Plain Text
  56. Duration : 1 h 20 min
  57. Bit rate : 53 b/s
  58. Count of elements : 641
  59. Stream size : 31.7 KiB (0%)
  60. Title : MoviesMB
  61. Language : English
  62. Default : Yes
  63. Forced : No
复制代码






游客,如果您要查看本帖隐藏内容请回复


回复

使用道具 举报

永恒神话

高清币
35947
金钱
69844
鲜花
0
在线时间
5617 小时
最后登录
2019-1-16
发表于 2019-1-12 22:35:15 | 显示全部楼层

这个帖子不回对不起自己!我想我是一天也不能离开中国高清论坛
回复 支持 反对

使用道具 举报

天王巨星

高清币
846
金钱
1732
鲜花
0
在线时间
234 小时
最后登录
2019-1-15
发表于 2019-1-12 22:41:40 | 显示全部楼层

我看不错噢 谢谢楼主!中国高清论坛越来越好!
回复 支持 反对

使用道具 举报

知名艺人

高清币
46
金钱
459
鲜花
0
在线时间
62 小时
最后登录
2019-1-15
发表于 2019-1-12 22:48:52 | 显示全部楼层

我看不错噢 谢谢楼主!中国高清论坛越来越好!
回复 支持 反对

使用道具 举报

金鸡奖主角

高清币
1927
金钱
2903
鲜花
0
在线时间
925 小时
最后登录
2019-1-16
发表于 2019-1-12 22:48:58 | 显示全部楼层

楼主太厉害了!楼主,电影应该很好看我觉得中国高清论坛真是个好地方!
回复 支持 反对

使用道具 举报

超级明星

高清币
640
金钱
7015
鲜花
0
在线时间
1996 小时
最后登录
2019-1-16
发表于 2019-1-12 23:28:04 | 显示全部楼层

这个帖子不回对不起自己!我想我是一天也不能离开中国高清论坛
回复 支持 反对

使用道具 举报

superstar

高清币
4493
金钱
7295
鲜花
0
在线时间
522 小时
最后登录
2019-1-16
发表于 2019-1-12 23:37:58 | 显示全部楼层
谢谢楼主分享
回复 支持 反对

使用道具 举报

金鸡奖主角

高清币
0
金钱
3713
鲜花
0
在线时间
499 小时
最后登录
2019-1-15
发表于 2019-1-12 23:42:03 | 显示全部楼层
多谢楼主发帖
回复 支持 反对

使用道具 举报

金鸡奖主角

高清币
257
金钱
2893
鲜花
0
在线时间
287 小时
最后登录
2019-1-24
发表于 2019-1-12 23:46:57 | 显示全部楼层

我看不错噢 谢谢楼主!中国高清论坛越来越好!
回复 支持 反对

使用道具 举报

懒得打字嘛,点击右侧快捷回复 【右侧内容,后台自定义】
您需要登录后才可以回帖 登录 | 立即注册

本版积分规则

QQ|手机版|小黑屋|中国高清论坛 ( 黔ICP备16007815号-1 )

GMT+8, 2019-1-24 10:50 , Processed in 0.100171 second(s), 30 queries .

Powered by Discuz! X3.4

© 2001-2017 Comsenz Inc.

快速回复 返回顶部 返回列表