请选择 进入手机版 | 继续访问电脑版

中国高清论坛

 找回密码
 立即注册
搜索
查看: 213|回复: 37

[喜剧片] 漫长的沉默之路 The.Long.Dumb.Road.2018.720p.BluRay.x264.DTS-FGT 4.4GB

[复制链接]

龙行天下

高清币
27307
金钱
5217
鲜花
20
在线时间
1222 小时
最后登录
2019-2-22
发表于 2019-2-1 21:24:42 | 显示全部楼层 |阅读模式
◎译  名 漫长的沉默之路 / 漫长愚蠢之路
◎片  名 The Long Dumb Road
◎年  代 2018
◎产  地 美国
◎类  别 喜剧
◎语  言 英语
◎上映日期 2018-11-09(美国)
◎IMDb评分 6.1/10 from 805 users
◎片  长 90分钟
◎导  演 汉娜·菲德尔 Hannah Fidell
◎编  剧 汉娜·菲德尔 Hannah Fidell / 卡森·D·梅尔 Carson D. Mell
◎主  演 格蕾丝·古默 Grace Gummer
      泰莎·法米加 Taissa Farmiga
      托尼·雷沃罗利 Tony Revolori
      杰森·曼兹沃克斯 Jason Mantzoukas
      朗·里维斯顿 Ron Livingston
      帕梅拉·里德 Pamela Reed
      席亚拉·博拉沃 Ciara Bravo
      凯西·威尔逊 Casey Wilson
      琳赛·柏奇 Lindsay Burdge
      Lora Martinez-Cunningham
      威尔·布里顿 Will Brittain
      本·罗森菲尔德 Ben Rosenfield
      吴辛惠 Cynthy Wu
      Brytnee Ratledge
      Annie Lederman



◎简  介  

  讲述青少年Nathan发现了一个与众不同的路伴Richard ,协助后者解决汽车问题,两人踏上了从美国南部前往洛杉矶的计划之外的公路之旅 。

Video
ID : 1
Format : AVC
Format/Info : Advanced Video Codec
Format profile : High@L4.1
Format settings : CABAC / 4 Ref Frames
Format settings, CABAC : Yes
Format settings, ReFrames : 4 frames
Codec ID : V_MPEG4/ISO/AVC
Duration : 1 h 30 min
Bit rate : 5 500 kb/s
Width : 1 280 pixels
Height : 534 pixels
Display aspect ratio : 2.40:1
Original display aspect ratio : 2.40:1
Frame rate mode : Constant
Frame rate : 23.976 (24000/1001) FPS
Color space : YUV
Chroma subsampling : 4:2:0
Bit depth : 8 bits
Scan type : Progressive
Bits/(Pixel*Frame) : 0.336
Stream size : 3.48 GiB (78%)
Title : The.Long.Dumb.Road.2018.720p.BluRay.x264.DTS-FGT
Writing library : x264 core 148 r2795M aaa9aa8
Encoding settings : cabac=1 / ref=4 / deblock=1:-2:-2 / analyse=0x3:0x113 / me=umh / subme=9 / psy=1 / psy_rd=1.00:0.15 / mixed_ref=1 / me_range=16 / chroma_me=1 / trellis=2 / 8x8dct=1 / cqm=0 / deadzone=21,11 / fast_pskip=1 / chroma_qp_offset=-3 / threads=24 / lookahead_threads=3 / sliced_threads=0 / nr=0 / decimate=1 / interlaced=0 / bluray_compat=0 / constrained_intra=0 / bframes=3 / b_pyramid=2 / b_adapt=1 / b_bias=0 / direct=3 / weightb=1 / open_gop=0 / weightp=2 / keyint=250 / keyint_min=25 / scenecut=40 / intra_refresh=0 / rc_lookahead=50 / rc=2pass / mbtree=1 / bitrate=5500 / ratetol=1.0 / qcomp=0.60 / qpmin=0 / qpmax=69 / qpstep=4 / cplxblur=20.0 / qblur=0.5 / vbv_maxrate=31250 / vbv_bufsize=31250 / nal_hrd=none / filler=0 / ip_ratio=1.40 / aq=1:1.00
Language : English
Default : Yes
Forced : No

Audio
ID : 2
Format : DTS
Format/Info : Digital Theater Systems
Codec ID : A_DTS
Duration : 1 h 30 min
Bit rate mode : Constant
Bit rate : 1 509 kb/s
Channel(s) : 6 channels
Channel layout : C L R Ls Rs LFE
Sampling rate : 48.0 kHz
Frame rate : 93.750 FPS (512 SPF)
Bit depth : 16 bits
Compression mode : Lossy
Stream size : 979 MiB (22%)
Title : The.Long.Dumb.Road.2018.720p.BluRay.x264.DTS-FGT
Language : English
Default : No
Forced : No

Text #1
ID : 3
Format : UTF-8
Codec ID : S_TEXT/UTF8
Codec ID/Info : UTF-8 Plain Text
Duration : 1 h 29 min
Bit rate : 80 b/s
Count of elements : 1551
Stream size : 52.9 KiB (0%)
Language : English
Default : Yes
Forced : No

Text #2
ID : 4
Format : UTF-8
Codec ID : S_TEXT/UTF8
Codec ID/Info : UTF-8 Plain Text
Duration : 1 h 30 min
Bit rate : 82 b/s
Count of elements : 1634
Stream size : 54.6 KiB (0%)
Title : SDH
Language : English
Default : No
Forced : No

Menu
00:00:00.000 : en:Chapter 01
00:08:17.663 : en:Chapter 02
00:15:44.735 : en:Chapter 03
00:23:55.809 : en:Chapter 04
00:31:00.608 : en:Chapter 05
00:40:05.236 : en:Chapter 06
00:50:31.153 : en:Chapter 07
00:52:36.820 : en:Chapter 08
00:59:25.353 : en:Chapter 09
01:06:49.630 : en:Chapter 10
01:15:29.566 : en:Chapter 11
01:26:02.240 : en:Chapter 12

游客,如果您要查看本帖隐藏内容请回复

回复

使用道具 举报

人气偶像

高清币
3
金钱
1489
鲜花
0
在线时间
311 小时
最后登录
2019-2-21
发表于 2019-2-1 21:44:27 | 显示全部楼层
不错的片子,值得下来收藏 ! 感谢楼主分享!
回复 支持 反对

使用道具 举报

好莱坞明星

高清币
11
金钱
5930
鲜花
0
在线时间
1450 小时
最后登录
2019-2-22
发表于 2019-2-1 21:51:07 | 显示全部楼层
感谢楼主分享精彩电影!

回复 支持 反对

使用道具 举报

好莱坞明星

高清币
1336
金钱
5563
鲜花
0
在线时间
984 小时
最后登录
2019-2-21
发表于 2019-2-1 22:53:01 | 显示全部楼层
感谢楼主分享
回复 支持 反对

使用道具 举报

永恒神话

高清币
8247
金钱
29867
鲜花
10
在线时间
1885 小时
最后登录
2019-2-22
发表于 2019-2-2 00:32:00 | 显示全部楼层
感谢分享精彩好电影!!!
回复 支持 反对

使用道具 举报

永恒神话

高清币
8843
金钱
13255
鲜花
0
在线时间
765 小时
最后登录
2019-2-22
发表于 2019-2-2 06:48:35 | 显示全部楼层
楼主发贴辛苦了,谢谢楼主分享!我觉得中国高清论坛是注册对了!
回复 支持 反对

使用道具 举报

superstar

高清币
264
金钱
15131
鲜花
0
在线时间
1042 小时
最后登录
2019-2-22
发表于 2019-2-2 07:18:27 | 显示全部楼层

这个帖子不回对不起自己!我想我是一天也不能离开中国高清论坛
回复 支持 反对

使用道具 举报

superstar

高清币
3782
金钱
9158
鲜花
0
在线时间
971 小时
最后登录
2019-2-22
发表于 2019-2-2 09:01:51 | 显示全部楼层

其实我一直觉得楼主的品味不错!呵呵!中国高清论坛太棒了!
回复 支持 反对

使用道具 举报

知名艺人

高清币
55
金钱
536
鲜花
0
在线时间
148 小时
最后登录
2019-2-22
发表于 2019-2-2 09:03:57 | 显示全部楼层

楼主,我太崇拜你了!我想我是一天也不能离开中国高清论坛
回复 支持 反对

使用道具 举报

永恒神话

高清币
9321
金钱
15726
鲜花
0
在线时间
2456 小时
最后登录
2019-2-21
发表于 2019-2-2 09:57:19 | 显示全部楼层
楼主发贴辛苦了,谢谢楼主分享!我觉得中国高清论坛是注册对了!
回复 支持 反对

使用道具 举报

懒得打字嘛,点击右侧快捷回复 【右侧内容,后台自定义】
您需要登录后才可以回帖 登录 | 立即注册

本版积分规则

QQ|手机版|小黑屋|中国高清论坛 ( 黔ICP备16007815号-1 )

GMT+8, 2019-2-22 09:39 , Processed in 0.113181 second(s), 29 queries .

Powered by Discuz! X3.4

© 2001-2017 Comsenz Inc.

快速回复 返回顶部 返回列表