请选择 进入手机版 | 继续访问电脑版

中国高清论坛

 找回密码
 立即注册
搜索
查看: 132|回复: 22

[剧情片] 止痛回忆 Painkillers.2018.1080p.AMZN.WEB-DL.DDP5.1.H.264-NTG 3.86GB

[复制链接]

龙行天下

高清币
26695
金钱
5147
鲜花
20
在线时间
1203 小时
最后登录
2019-2-13
发表于 2019-2-4 21:08:14 | 显示全部楼层 |阅读模式
MV5BODkxNTMzMDUtOGNlYi00OTVkLTg5M2MtN2RkNjdiZmRkMjMyXkEyXkFqcGdeQXVyMTg0MTI3Mg@@.jpg

Painkillers.2018.1080p.AMZN.WEBRip.DDP5.1.x264-NTG
导演: Roxy Shih
编剧: Giles Daoust
主演: 亚当·胡斯 / 玛德琳·奇玛 / 黛布拉·威尔逊 / 格兰特·鲍尔 / 米莎·巴顿 / 娜奥米·格罗斯曼 / Maria Olsen / 安东尼·马 / Kim Estes / Brandy Redd / 詹姆斯·罗根 / Tate Birchmore / Ana Harrison / Danny Herb / Stephen Wastell
类型: 剧情
制片国家/地区: 比利时
上映日期: 2018-04-12(比利时)
IMDb链接: tt6187620
约翰·克拉克·胡斯(JohnClarkeHuss)是一位出色的外科医生,他因儿子在车祸中去世而感到内疚,他开始意识到,唯一能减轻他痛苦的就是人血的味道。
        
Video
ID : 1
Format : AVC
Format/Info : Advanced Video Codec
Format profile : High@L4
Format settings : CABAC / 4 Ref Frames
Format settings, CABAC : Yes
Format settings, ReFrames : 4 frames
Codec ID : V_MPEG4/ISO/AVC
Duration : 1 h 23 min
Bit rate mode : Constant
Bit rate : 5 982 kb/s
Nominal bit rate : 10 000 kb/s
Width : 1 920 pixels
Height : 800 pixels
Display aspect ratio : 2.40:1
Frame rate mode : Constant
Frame rate : 23.976 (24000/1001) FPS
Color space : YUV
Chroma subsampling : 4:2:0
Bit depth : 8 bits
Scan type : Progressive
Bits/(Pixel*Frame) : 0.162
Stream size : 3.48 GiB (90%)
Default : Yes
Forced : No
Color range : Limited
Color primaries : BT.709
Transfer characteristics : BT.709
Matrix coefficients : BT.709

Audio
ID : 2
Format : E-AC-3
Format/Info : Enhanced AC-3
Commercial name : Dolby Digital Plus
Codec ID : A_EAC3
Duration : 1 h 23 min
Bit rate mode : Constant
Bit rate : 640 kb/s
Channel(s) : 6 channels
Channel layout : L R C LFE Ls Rs
Sampling rate : 48.0 kHz
Frame rate : 31.250 FPS (1536 SPF)
Compression mode : Lossy
Stream size : 382 MiB (10%)
Language : English
Service kind : Complete Main
Default : Yes
Forced : No

Text
ID : 3
Format : UTF-8
Codec ID : S_TEXT/UTF8
Codec ID/Info : UTF-8 Plain Text
Duration : 1 h 19 min
Bit rate : 42 b/s
Count of elements : 977
Stream size : 24.5 KiB (0%)
Title : SDH
Language : English
Default : No
Forced : No
MV5BY2NmY2UyMTgtMzExMi00MzljLTk1MzMtZTdmNmI0MjMzMGIwXkEyXkFqcGdeQXVyNTIxNTk0MTM@.jpg MV5BYWJmZTU3MzAtYzYzNC00NmM1LTkxZWQtNjE1YTRmOTZlNjQ0XkEyXkFqcGdeQXVyNTIxNTk0MTM@.jpg MV5BZWUwMjdhYTktNDU1OC00ZWFkLTlmODctYWIyYzk2YTY4MDUxXkEyXkFqcGdeQXVyNTIxNTk0MTM@.jpg
游客,如果您要查看本帖隐藏内容请回复


回复

使用道具 举报

superstar

高清币
47
金钱
11827
鲜花
0
在线时间
1412 小时
最后登录
2019-2-12
发表于 2019-2-4 21:11:01 | 显示全部楼层
楼主发贴辛苦了,谢谢楼主分享!我觉得中国高清论坛是注册对了!

回复 支持 反对

使用道具 举报

好莱坞明星

高清币
1377
金钱
6393
鲜花
0
在线时间
244 小时
最后登录
2019-2-17
发表于 2019-2-4 21:25:27 | 显示全部楼层

楼主太厉害了!楼主,电影应该很好看我觉得中国高清论坛真是个好地方!
回复 支持 反对

使用道具 举报

好莱坞明星

高清币
2078
金钱
4502
鲜花
0
在线时间
1333 小时
最后登录
2019-2-17
发表于 2019-2-4 21:34:13 | 显示全部楼层

既然你诚信诚意的推荐了,那我就勉为其难的看看吧!中国高清论坛不走平凡路。
回复 支持 反对

使用道具 举报

超级明星

高清币
796
金钱
6997
鲜花
0
在线时间
2737 小时
最后登录
2019-2-17
发表于 2019-2-4 21:38:44 | 显示全部楼层

这个帖子不回对不起自己!我想我是一天也不能离开中国高清论坛
回复 支持 反对

使用道具 举报

超级明星

高清币
2784
金钱
6351
鲜花
0
在线时间
418 小时
最后登录
2019-2-16
发表于 2019-2-4 21:39:49 | 显示全部楼层
很好看,支持下,谢谢楼主分享。
回复 支持 反对

使用道具 举报

金鸡奖主角

高清币
1027
金钱
3582
鲜花
0
在线时间
414 小时
最后登录
2019-2-17
发表于 2019-2-4 21:40:44 | 显示全部楼层
楼主发贴辛苦了,谢谢楼主分享!我觉得中国高清论坛是注册对了!
回复 支持 反对

使用道具 举报

人气偶像

高清币
548
金钱
897
鲜花
0
在线时间
48 小时
最后登录
2019-2-8
发表于 2019-2-4 22:28:15 | 显示全部楼层
楼主发贴辛苦了,谢谢楼主分享!我觉得中国高清论坛是注册对了!
回复 支持 反对

使用道具 举报

人气偶像

高清币
0
金钱
654
鲜花
0
在线时间
100 小时
最后登录
2019-2-12
发表于 2019-2-4 22:46:13 | 显示全部楼层

楼主太厉害了!楼主,电影应该很好看我觉得中国高清论坛真是个好地方!
回复 支持 反对

使用道具 举报

金鸡奖主角

高清币
727
金钱
3685
鲜花
0
在线时间
439 小时
最后登录
2019-2-16
发表于 2019-2-4 22:55:31 | 显示全部楼层

这个帖子不回对不起自己!我想我是一天也不能离开中国高清论坛
回复 支持 反对

使用道具 举报

懒得打字嘛,点击右侧快捷回复 【右侧内容,后台自定义】
您需要登录后才可以回帖 登录 | 立即注册

本版积分规则

QQ|手机版|小黑屋|中国高清论坛 ( 黔ICP备16007815号-1 )

GMT+8, 2019-2-17 20:00 , Processed in 0.097113 second(s), 28 queries .

Powered by Discuz! X3.4

© 2001-2017 Comsenz Inc.

快速回复 返回顶部 返回列表