请选择 进入手机版 | 继续访问电脑版

中国高清论坛

 找回密码
 立即注册
搜索
查看: 300|回复: 64

[奇幻片] 与神同行2:因与缘2018.LIMITED.720p.BluRay.x264-USURY 5.47GB

  [复制链接]

龙行天下

高清币
27322
金钱
5217
鲜花
20
在线时间
1222 小时
最后登录
2019-2-22
发表于 2019-2-8 23:08:49 | 显示全部楼层 |阅读模式
poster_opt (1).jpg
导演: 金容华
编剧: 金容华
主演: 河正宇 / 朱智勋 / 马东锡 / 金香起 / 李政宰 / 赵汉哲 / 金明坤/ 金东旭 / 郑惟安 / 都暻秀
类型: 动作 / 奇幻
制片国家/地区: 韩国
语言: 韩语
上映日期: 2018-08-01(韩国)
片长: 142分钟
又名: 与神同行:终极审判(港) / 与神同行:最终审判(台) / 与神同行2:因与果 / 与神同行下 / 和神一起2 / 与神同在2 / 与神一起2 / Along With the Gods: The Last 49 Days / Along With the Gods 2
IMDb链接: tt8116428

与神同行2:因与缘的剧情简介 · · · · · ·  故事接上集,为了完成阎罗王(李政宰 饰)开出的条件,解怨脈(朱智勋 饰)与德春(金香起 饰)与凶悍的城主神(马东锡 饰)展开决斗。江林(河正宇 饰)也力劝一等兵(都暻秀 饰)公开秀鸿意外死亡的真相,就在阴间使者们试图完成任务的同时,千年前,他们生前的悲剧也将被逐一揭开

Video
ID : 1
Format : AVC
Format/Info : Advanced Video Codec
Format profile : High@L4.1
Format settings : CABAC / 5 Ref Frames
Format settings, CABAC : Yes
Format settings, ReFrames : 5 frames
Codec ID : V_MPEG4/ISO/AVC
Duration : 2 h 21 min
Bit rate : 4 017 kb/s
Width : 1 280 pixels
Height : 536 pixels
Display aspect ratio : 2.40:1
Frame rate mode : Constant
Frame rate : 24.000 FPS
Color space : YUV
Chroma subsampling : 4:2:0
Bit depth : 8 bits
Scan type : Progressive
Bits/(Pixel*Frame) : 0.244
Stream size : 3.97 GiB (73%)
Writing library : x264 core 157 r2935 545de2f
Encoding settings : cabac=1 / ref=5 / deblock=1:-3:-3 / analyse=0x3:0x133 / me=umh / subme=9 / psy=1 / psy_rd=1.00:0.00 / mixed_ref=1 / me_range=16 / chroma_me=1 / trellis=2 / 8x8dct=1 / cqm=0 / deadzone=21,11 / fast_pskip=0 / chroma_qp_offset=-2 / threads=12 / lookahead_threads=1 / sliced_threads=0 / nr=0 / decimate=1 / interlaced=0 / bluray_compat=0 / constrained_intra=0 / bframes=3 / b_pyramid=2 / b_adapt=1 / b_bias=0 / direct=3 / weightb=1 / open_gop=0 / weightp=2 / keyint=240 / keyint_min=24 / scenecut=40 / intra_refresh=0 / rc_lookahead=50 / rc=2pass / mbtree=1 / bitrate=4017 / ratetol=1.0 / qcomp=0.60 / qpmin=0 / qpmax=69 / qpstep=4 / cplxblur=20.0 / qblur=0.5 / ip_ratio=1.40 / aq=1:1.00
Language : English
Default : Yes
Forced : No

Audio
ID : 2
Format : DTS
Format/Info : Digital Theater Systems
Codec ID : A_DTS
Duration : 2 h 21 min
Bit rate mode : Constant
Bit rate : 1 509 kb/s
Channel(s) : 6 channels
Channel layout : C L R Ls Rs LFE
Sampling rate : 48.0 kHz
Frame rate : 93.750 FPS (512 SPF)
Bit depth : 24 bits
Compression mode : Lossy
Stream size : 1.49 GiB (27%)
Language : Korean
Default : Yes
Forced : No

Text
ID : 3
Format : UTF-8
Codec ID : S_TEXT/UTF8
Codec ID/Info : UTF-8 Plain Text
Duration : 2 h 16 min
Bit rate : 49 b/s
Count of elements : 1667
Stream size : 49.8 KiB (0%)
Title : English
Language : English
Default : Yes
Forced : Yes

Menu
00:00:00.000 : en:00:00:00.000
00:08:05.417 : en:00:08:05.417
00:12:52.917 : en:00:12:52.917
00:20:54.042 : en:00:20:54.042
00:29:28.500 : en:00:29:28.500
00:37:46.458 : en:00:37:46.458
00:47:45.500 : en:00:47:45.500
00:58:13.625 : en:00:58:13.625
01:06:16.625 : en:01:06:16.625
01:15:11.542 : en:01:15:11.542
01:24:58.958 : en:01:24:58.958
01:33:57.375 : en:01:33:57.375
01:45:24.792 : en:01:45:24.792
01:56:04.583 : en:01:56:04.583
02:14:13.583 : en:02:14:13.583

80041282858975845517_thumb.jpg
游客,如果您要查看本帖隐藏内容请回复

回复

使用道具 举报

人气偶像

高清币
331
金钱
1257
鲜花
0
在线时间
96 小时
最后登录
2019-2-21
发表于 2019-2-8 23:25:51 | 显示全部楼层

我看不错噢 谢谢楼主!中国高清论坛越来越好!
回复 支持 反对

使用道具 举报

人气偶像

高清币
282
金钱
773
鲜花
0
在线时间
87 小时
最后登录
2019-2-19
发表于 2019-2-8 23:30:25 | 显示全部楼层
楼主太厉害了!楼主,电影应该很好看我觉得
中国高清论坛
真是个好地方!

回复 支持 反对

使用道具 举报

金鸡奖主角

高清币
398
金钱
4663
鲜花
0
在线时间
1591 小时
最后登录
2019-2-15
发表于 2019-2-8 23:45:32 | 显示全部楼层
楼主太厉害了!
回复 支持 反对

使用道具 举报

天王巨星

高清币
55
金钱
3910
鲜花
0
在线时间
1529 小时
最后登录
2019-2-21
发表于 2019-2-8 23:50:36 | 显示全部楼层

其实我一直觉得楼主的品味不错!呵呵!中国高清论坛太棒了!
回复 支持 反对

使用道具 举报

知名艺人

高清币
5
金钱
339
鲜花
0
在线时间
46 小时
最后登录
2019-2-20
发表于 2019-2-9 00:00:35 | 显示全部楼层
同行/与神一起/与神同在/和神一
回复 支持 反对

使用道具 举报

永恒神话

高清币
8251
金钱
29871
鲜花
10
在线时间
1885 小时
最后登录
2019-2-22
发表于 2019-2-9 01:22:50 | 显示全部楼层
感谢分享精彩好电影!!!
回复 支持 反对

使用道具 举报

知名艺人

高清币
5
金钱
237
鲜花
0
在线时间
53 小时
最后登录
2019-2-19
发表于 2019-2-9 08:02:37 | 显示全部楼层
与神同行2:因与缘2018.LIMITED.720p.BluRay.x264-USURY 5.47GB
回复 支持 反对

使用道具 举报

人气偶像

高清币
160
金钱
715
鲜花
0
在线时间
110 小时
最后登录
2019-2-21
发表于 2019-2-9 08:28:29 | 显示全部楼层
与神同行2:因与缘2018.LIMITED.720p.BluRay.x264-USURY 5.47G
回复 支持 反对

使用道具 举报

永恒神话

高清币
8843
金钱
13255
鲜花
0
在线时间
765 小时
最后登录
2019-2-22
发表于 2019-2-9 08:48:57 | 显示全部楼层
感谢楼主分享精彩电影!
回复 支持 反对

使用道具 举报

懒得打字嘛,点击右侧快捷回复 【右侧内容,后台自定义】
您需要登录后才可以回帖 登录 | 立即注册

本版积分规则

QQ|手机版|小黑屋|中国高清论坛 ( 黔ICP备16007815号-1 )

GMT+8, 2019-2-22 11:20 , Processed in 0.105612 second(s), 29 queries .

Powered by Discuz! X3.4

© 2001-2017 Comsenz Inc.

快速回复 返回顶部 返回列表