请选择 进入手机版 | 继续访问电脑版

中国高清论坛

 找回密码
 立即注册
搜索
查看: 3857|回复: 465

[剧情片] 大开眼戒/紧闭双眼/睁大双眼/大开眼界 Eyes.Wide.Shut.1999.PROPER.1080p.BluRay.x264-SADPANDA 15.44G

  [复制链接]

超级版主

高清币
429066
金钱
19411
鲜花
58
在线时间
2661 小时
最后登录
2019-2-17
发表于 2017-8-9 23:10:12 | 显示全部楼层 |阅读模式

◎译  名 大开眼戒/紧闭双眼/睁大双眼/大开眼界
◎片  名 Eyes Wide Shut
◎年  代 1999
◎产  地 英国/美国
◎类  别 剧情/悬疑/惊悚/情色
◎语  言 英语
◎上映日期 1999-07-16(美国)/1999-09-10(英国)
◎IMDb评分  7.3/10 from 243,241 users
◎IMDb链接  http://www.imdb.com/title/tt0120663/
◎豆瓣评分 7.7/10 from 51,803 users
◎豆瓣链接 https://movie.douban.com/subject/1300275/
◎片  长 159 分钟
◎导  演 斯坦利·库布里克 Stanley Kubrick
◎主  演 汤姆·克鲁斯 Tom Cruise
      妮可·基德曼 Nicole Kidman
      Madison Eginton
      Jackie Sawiris
      西德尼·波拉克 Sydney Pollack
      托德·菲尔德 Todd Field
      凡妮莎·肖 Vinessa Shaw
◎简  介
  医生威廉姆(汤姆•克鲁斯 Tom Cruise 饰)携太太(妮可•基德曼 Nicole Kidman 饰)参加他的一位主顾――当地一个名流――家里举行的晚会时,巧遇了他的一位大学同学--在晚会上担任钢琴师的尼克。
  当晚,威廉姆因公外出。料理完公事后,他在一家酒吧再次遇到了尼克,尼克告诉了他有这样一个秘密舞会:在舞会上,所有的人都穿着晚礼服,戴着面具,到处都是裸体的美女。威廉姆禁不住好奇,再三乞求尼克,尼克告诉了他举行那个舞会的地址和入门的暗语。
  威廉姆匆匆准备后,展开了一次如幻如梦的冒险之旅。过程充满了诡异和神秘,背后的玄机更是令人无法参透。

Video
ID                                       : 1
Format                                   : AVC
Format/Info                              : Advanced Video Codec
Format profile                           : High@L4.1
Format settings, CABAC                   : Yes
Format settings, ReFrames                : 4 frames
Codec ID                                 : V_MPEG4/ISO/AVC
Duration                                 : 2h 39mn
Bit rate                                 : 12.6 Mbps
Width                                    : 1 920 pixels
Height                                   : 1 080 pixels
Display aspect ratio                     : 16:9
Frame rate mode                          : Constant
Frame rate                               : 23.976 (24000/1001) fps
Color space                              : YUV
Chroma subsampling                       : 4:2:0
Bit depth                                : 8 bits
Scan type                                : Progressive
Bits/(Pixel*Frame)                       : 0.253
Stream size                              : 14.0 GiB (91%)
Writing library                          : x264 core 148 r2705 3f5ed56
Encoding settings                        : cabac=1 / ref=4 / deblock=1:-3:-3 / analyse=0x3:0x133 / me=umh / subme=9 / psy=1 / psy_rd=1.00:0.25 / mixed_ref=1 / me_range=24 / chroma_me=1 / trellis=2 / 8x8dct=1 / cqm=0 / deadzone=21,11 / fast_pskip=1 / chroma_qp_offset=-4 / threads=24 / lookahead_threads=2 / sliced_threads=0 / nr=0 / decimate=1 / interlaced=0 / bluray_compat=0 / constrained_intra=0 / bframes=3 / b_pyramid=2 / b_adapt=2 / b_bias=0 / direct=3 / weightb=1 / open_gop=0 / weightp=2 / keyint=240 / keyint_min=24 / scenecut=40 / intra_refresh=0 / rc_lookahead=60 / rc=2pass / mbtree=1 / bitrate=12575 / ratetol=1.0 / qcomp=0.60 / qpmin=0 / qpmax=69 / qpstep=4 / cplxblur=20.0 / qblur=0.5 / ip_ratio=1.40 / aq=1:0.50
Default                                  : Yes
Forced                                   : No

Audio
ID                                       : 2
Format                                   : FLAC
Format/Info                              : Free Lossless Audio Codec
Codec ID                                 : A_FLAC
Duration                                 : 2h 39mn
Bit rate mode                            : Variable
Bit rate                                 : 1 199 Kbps
Channel(s)                               : 6 channels
Channel positions                        : Front: L C R, Side: L R, LFE
Sampling rate                            : 48.0 KHz
Frame rate                               : 11.719 fps (4096 spf)
Bit depth                                : 16 bits
Stream size                              : 1.33 GiB (9%)
Writing library                          : libFLAC 1.2.1 (UTC 2007-09-17)
Language                                 : English
Default                                  : Yes
Forced                                   : No

Text #1
ID                                       : 3
Format                                   : UTF-8
Codec ID                                 : S_TEXT/UTF8
Codec ID/Info                            : UTF-8 Plain Text
Duration                                 : 2h 37mn
Bit rate                                 : 35 bps
Count of elements                        : 1380
Stream size                              : 41.0 KiB (0%)
Language                                 : English
Default                                  : No
Forced                                   : No

Text #2
ID                                       : 4
Format                                   : UTF-8
Codec ID                                 : S_TEXT/UTF8
Codec ID/Info                            : UTF-8 Plain Text
Duration                                 : 2h 32mn
Bit rate                                 : 37 bps
Count of elements                        : 1431
Stream size                              : 41.9 KiB (0%)
Title                                    : SDH
Language                                 : English
Default                                  : No
Forced                                   : No

Menu
00:00:00.000                             : en:00:00:00.000
00:02:42.162                             : en:00:02:42.162
00:06:26.052                             : en:00:06:26.052
00:10:13.112                             : en:00:10:13.112
00:12:53.106                             : en:00:12:53.106
00:20:45.578                             : en:00:20:45.578
00:31:25.217                             : en:00:31:25.217
00:37:20.738                             : en:00:37:20.738
00:41:46.838                             : en:00:41:46.838
00:45:34.899                             : en:00:45:34.899
00:46:59.984                             : en:00:46:59.984
00:51:01.558                             : en:00:51:01.558
00:54:49.620                             : en:00:54:49.620
01:01:26.683                             : en:01:01:26.683
01:05:15.912                             : en:01:05:15.912
01:08:42.285                             : en:01:08:42.285
01:12:05.321                             : en:01:12:05.321
01:15:40.035                             : en:01:15:40.035
01:19:25.761                             : en:01:19:25.761
01:22:19.601                             : en:01:22:19.601
01:24:12.214                             : en:01:24:12.214
01:27:22.904                             : en:01:27:22.904
01:30:01.396                             : en:01:30:01.396
01:32:55.737                             : en:01:32:55.737
01:38:32.740                             : en:01:38:32.740
01:41:15.736                             : en:01:41:15.736
01:44:52.453                             : en:01:44:52.453
01:47:37.951                             : en:01:47:37.951
01:52:02.716                             : en:01:52:02.716
01:55:30.257                             : en:01:55:30.257
02:01:31.951                             : en:02:01:31.951
02:04:46.312                             : en:02:04:46.312
02:10:30.489                             : en:02:10:30.489
02:15:02.094                             : en:02:15:02.094
02:19:02.501                             : en:02:19:02.501
02:24:12.477                             : en:02:24:12.477
02:27:47.859                             : en:02:27:47.859
02:33:38.209                             : en:02:33:38.209
游客,如果您要查看本帖隐藏内容请回复

回复

使用道具 举报

金鸡奖主角

高清币
108
金钱
3325
鲜花
0
在线时间
528 小时
最后登录
2019-2-15
发表于 2017-8-9 23:12:34 | 显示全部楼层
感谢楼主分享精彩电影!
回复 支持 反对

使用道具 举报

superstar

高清币
2770
金钱
8857
鲜花
0
在线时间
884 小时
最后登录
2019-2-17
发表于 2017-8-9 23:18:35 | 显示全部楼层
感谢楼主分享好片
回复 支持 反对

使用道具 举报

跑龙套

高清币
0
金钱
8
鲜花
0
在线时间
1 小时
最后登录
2017-8-9
发表于 2017-8-9 23:18:45 | 显示全部楼层
阿斯打扫打扫打扫打扫的
回复 支持 反对

使用道具 举报

永恒神话

高清币
43007
金钱
76985
鲜花
0
在线时间
1464 小时
最后登录
2019-2-17
发表于 2017-8-9 23:20:47 | 显示全部楼层
感谢楼主分享精彩电影!
回复 支持 反对

使用道具 举报

知名艺人

高清币
3
金钱
601
鲜花
0
在线时间
131 小时
最后登录
2019-2-17
发表于 2017-8-9 23:21:02 | 显示全部楼层
心灵捕手心灵捕手
回复 支持 反对

使用道具 举报

永恒神话

高清币
43007
金钱
76985
鲜花
0
在线时间
1464 小时
最后登录
2019-2-17
发表于 2017-8-9 23:21:23 | 显示全部楼层
既然你诚信诚意的推荐了,那我就勉为其难的看看吧!
回复 支持 反对

使用道具 举报

人气偶像

高清币
104
金钱
860
鲜花
0
在线时间
194 小时
最后登录
2017-9-5
发表于 2017-8-9 23:25:56 | 显示全部楼层
楼主分享的高清电影太好了!
回复 支持 反对

使用道具 举报

跑龙套

高清币
5
金钱
56
鲜花
0
在线时间
7 小时
最后登录
2017-9-5
发表于 2017-8-9 23:32:02 | 显示全部楼层
感谢楼主分享
回复 支持 反对

使用道具 举报

天王巨星

高清币
30
金钱
3006
鲜花
0
在线时间
809 小时
最后登录
2019-2-17
发表于 2017-8-9 23:36:54 | 显示全部楼层
楼主分享的高清电影太好了!
回复 支持 反对

使用道具 举报

懒得打字嘛,点击右侧快捷回复 【右侧内容,后台自定义】
您需要登录后才可以回帖 登录 | 立即注册

本版积分规则

QQ|手机版|小黑屋|中国高清论坛 ( 黔ICP备16007815号-1 )

GMT+8, 2019-2-17 21:23 , Processed in 0.157416 second(s), 35 queries .

Powered by Discuz! X3.4

© 2001-2017 Comsenz Inc.

快速回复 返回顶部 返回列表