请选择 进入手机版 | 继续访问电脑版

中国高清论坛

 找回密码
 立即注册
111
搜索
查看: 6690|回复: 754

[剧情片] 偷香/盗美人 Stealing.Beauty.1996.1080p.AMZN.WEBRip.DD5.1.x264-QOQ 8.1GB

  [复制链接]

超级版主

高清币
959593
金钱
30532
鲜花
2
在线时间
4086 小时
最后登录
2018-12-10
发表于 2018-1-8 19:10:58 | 显示全部楼层 |阅读模式


cd1ceb697ed9746c53b392f20376145f.jpg


◎译  名 偷香/盗美人
◎片  名 Stealing Beauty
◎年  代 1996
◎产  地 意大利/法国/英国
◎类  别 剧情/爱情/情色
◎语  言 英语/法语/德语/西班牙语/意大利语
◎上映日期 1996-03-29
◎IMDb评分  6.6/10 from 21,908 users
◎豆瓣评分 7.7/10 from 15,449 users
◎片  长 118 分钟
◎导  演 贝纳尔多·贝托鲁奇 Bernardo Bertolucci
◎主  演 杰瑞米·艾恩斯 Jeremy Irons
      丽芙·泰勒 Liv Tyler
      西妮德·库萨克 Sinéad Cusack
      约瑟夫·费因斯 Joseph Fiennes
      蕾切尔·薇兹 Rachel Weisz
      伊格纳齐奥·欧力瓦 Ignazio Oliva

◎简  介

  年轻的露西(丽芙·泰勒 Liv Tyler 饰)带着她母亲自杀后留下的日记,来到了一个小镇上探访母亲往昔的好友,并住在雕塑家格雷森的家中。其实四年前,露西就和母亲来过这里,还认识了一个叫尼古拉的男孩。她曾经被他送上的一封信深深感动,并和他有过美好的初恋时光。如今,格雷斯家中异常热闹,聚集了各路人物,露西美丽的魅力让这里的男人们纷纷动心,其中患有白血病的作家亚历克斯更是难以自拔。尼古拉从国外回来,露西却发现他是个花花公子,枉费当年动了情。此时寻找生父成了露西的心结。她在这段历程中慢慢成熟,并寻获心爱那人。

◎获奖情况

  第49届戛纳电影节  (1996)
  主竞赛单元 金棕榈奖(提名) 贝纳尔多·贝托鲁奇

Video
ID                                       : 1
Format                                   : AVC
Format/Info                              : Advanced Video Codec
Format profile                           : High@L4
Format settings                          : CABAC / 4 Ref Frames
Format settings, CABAC                   : Yes
Format settings, ReFrames                : 4 frames
Codec ID                                 : V_MPEG4/ISO/AVC
Duration                                 : 1 h 58 min
Bit rate mode                            : Variable
Bit rate                                 : 9 159 kb/s
Maximum bit rate                         : 15.0 Mb/s
Width                                    : 1 920 pixels
Height                                   : 1 080 pixels
Display aspect ratio                     : 16:9
Frame rate mode                          : Constant
Frame rate                               : 23.976 (24000/1001) FPS
Color space                              : YUV
Chroma subsampling                       : 4:2:0
Bit depth                                : 8 bits
Scan type                                : Progressive
Bits/(Pixel*Frame)                       : 0.184
Stream size                              : 7.57 GiB (93%)
Default                                  : Yes
Forced                                   : No
Color range                              : Limited
Color primaries                          : BT.709
Transfer characteristics                 : BT.709
Matrix coefficients                      : BT.709

Audio
ID                                       : 2
Format                                   : E-AC-3
Format/Info                              : Enhanced Audio Coding 3
Codec ID                                 : A_EAC3
Duration                                 : 1 h 58 min
Bit rate mode                            : Constant
Bit rate                                 : 640 kb/s
Channel(s)                               : 6 channels
Channel positions                        : Front: L C R, Side: L R, LFE
Sampling rate                            : 48.0 kHz
Frame rate                               : 187.500 FPS (256 SPF)
Compression mode                         : Lossy
Stream size                              : 542 MiB (7%)
Language                                 : English
Service kind                             : Complete Main
Default                                  : Yes
Forced                                   : No

Text
ID                                       : 3
Format                                   : UTF-8
Codec ID                                 : S_TEXT/UTF8
Codec ID/Info                            : UTF-8 Plain Text
Duration                                 : 1 h 56 min
Bit rate                                 : 39 b/s
Count of elements                        : 1489
Stream size                              : 33.3 KiB (0%)
Language                                 : English
Default                                  : No
Forced                                   : No




游客,如果您要查看本帖隐藏内容请回复


回复

使用道具 举报

永恒神话

高清币
12106
金钱
23853
鲜花
0
在线时间
2090 小时
最后登录
2018-12-10
发表于 2018-1-8 19:14:54 | 显示全部楼层
感谢楼主分享精彩电影!
回复 支持 反对

使用道具 举报

金鸡奖主角

高清币
0
金钱
3976
鲜花
0
在线时间
1072 小时
最后登录
2018-12-9
发表于 2018-1-8 19:16:20 | 显示全部楼层
谢分享精彩电影!!!!!!
回复 支持 反对

使用道具 举报

金鸡奖主角

高清币
0
金钱
3976
鲜花
0
在线时间
1072 小时
最后登录
2018-12-9
发表于 2018-1-8 19:16:44 | 显示全部楼层
谢分享精彩电影!!!!!!
回复 支持 反对

使用道具 举报

金鸡奖主角

高清币
0
金钱
3976
鲜花
0
在线时间
1072 小时
最后登录
2018-12-9
发表于 2018-1-8 19:17:09 | 显示全部楼层
谢分享精彩电影!!!!!!
回复 支持 反对

使用道具 举报

知名艺人

高清币
0
金钱
551
鲜花
0
在线时间
110 小时
最后登录
2018-12-2
发表于 2018-1-8 19:17:19 | 显示全部楼层
感谢楼主分享,不错的电影。
回复 支持 反对

使用道具 举报

人气偶像

高清币
1
金钱
1726
鲜花
0
在线时间
183 小时
最后登录
2018-9-21
发表于 2018-1-8 19:17:22 | 显示全部楼层
每天都来中国高清论坛看看有什么电影!
回复 支持 反对

使用道具 举报

金鸡奖主角

高清币
0
金钱
3976
鲜花
0
在线时间
1072 小时
最后登录
2018-12-9
发表于 2018-1-8 19:17:35 | 显示全部楼层
谢分享精彩电影!!!!!!
回复 支持 反对

使用道具 举报

永恒神话

高清币
7714
金钱
14403
鲜花
0
在线时间
1434 小时
最后登录
2018-12-10
发表于 2018-1-8 19:18:18 | 显示全部楼层
每天都来中国高清论坛看看有什么电影!
回复 支持 反对

使用道具 举报

好莱坞明星

高清币
1119
金钱
4695
鲜花
0
在线时间
865 小时
最后登录
2018-12-10
发表于 2018-1-8 19:18:36 | 显示全部楼层
中国高清论坛很棒!
回复 支持 反对

使用道具 举报

懒得打字嘛,点击右侧快捷回复 【右侧内容,后台自定义】
您需要登录后才可以回帖 登录 | 立即注册

本版积分规则

QQ|手机版|小黑屋|中国高清论坛 ( 黔ICP备16007815号-1 )

GMT+8, 2018-12-10 10:25 , Processed in 0.098822 second(s), 31 queries .

Powered by Discuz! X3.4

© 2001-2017 Comsenz Inc.

快速回复 返回顶部 返回列表