请选择 进入手机版 | 继续访问电脑版

中国高清论坛

 找回密码
 立即注册
111
搜索
查看: 2871|回复: 207

[剧情片] 我想吃掉你的胰脏/我想吃了你的胰脏 Let.Me.Eat.Your.Pancreas.2017.720p.BluRay.x264-WiKi

  [复制链接]

区域版主

高清币
13768
金钱
32399
鲜花
-88
在线时间
10549 小时
最后登录
2018-12-10
发表于 2018-1-13 20:33:18 | 显示全部楼层 |阅读模式
本帖最后由 jinggangshi 于 2018-1-13 23:21 编辑




◎译  名 我想吃掉你的胰脏/我想吃了你的胰脏
◎片  名 君の膵臓をたべたい
◎年  代 2017
◎产  地 日本
◎类  别 剧情/爱情'
◎语  言 日语
◎IMDb评分  7.4/10 from 291 users
◎IMDb链接  http://www.imdb.com/title/tt6078840
◎片  长 115分钟
◎导  演 月川翔 Sh? Tsukikawa
◎主  演 滨边美波 Minami Hamabe
      北村匠海 Takumi Kitamura
      大友花恋 Otomo Karen
      矢本悠马 Yuma Yamoto
      樱田通 Dori Sakurada
      森下大地 Daichi Morishita
      上地雄辅 Y?suke Kamiji
      北川景子 Keiko Kitagawa
      小栗旬 Shun Oguri

◎简  介

  电影《我想吃掉你的胰脏》由住野夜的畅销小说改编,讲述了“我”(北村匠海饰)因为偶然间捡到了同班同学山内樱良(滨边美波饰)的共病文库,而发现了她身患胰脏绝症的秘密,性格天差地别的两人也因此走近,发生了一系列感人的故事。在影片中,小栗旬饰演12年后的“我”,北川景子则饰演樱良好友恭子的成年时期。

◎获奖情况

  第42届报知映画赏  (2017)
  最佳新人奖 北村匠海 / 滨边美波


  1. Video
  2. ID                                       : 1
  3. Format                                   : AVC
  4. Format/Info                              : Advanced Video Codec
  5. Format profile                           : High@L4.1
  6. Format settings                          : CABAC / 12 Ref Frames
  7. Format settings, CABAC                   : Yes
  8. Format settings, ReFrames                : 12 frames
  9. Codec ID                                 : V_MPEG4/ISO/AVC
  10. Duration                                 : 1 h 55 min
  11. Bit rate                                 : 5 400 kb/s
  12. Width                                    : 1 280 pixels
  13. Height                                   : 536 pixels
  14. Display aspect ratio                     : 2.40:1
  15. Frame rate mode                          : Constant
  16. Frame rate                               : 23.976 (24000/1001) FPS
  17. Color space                              : YUV
  18. Chroma subsampling                       : 4:2:0
  19. Bit depth                                : 8 bits
  20. Scan type                                : Progressive
  21. Bits/(Pixel*Frame)                       : 0.328
  22. Stream size                              : 4.34 GiB (89%)
  23. Title                                    : x264_L4.1 @ 5,400 Kbps
  24. Writing library                          : x264 core 129 r2245+704+36 8e61944 tMod+MixAQ [8-bit@4:2:0 X86_64]
  25. Encoding settings                        : cabac=1 / ref=12 / deblock=1:-3:-3 / analyse=0x3:0x133 / me=umh / subme=11 / psy=1 / fade_compensate=0.00 / psy_rd=1.05:0.10 / mixed_ref=1 / me_range=32 / chroma_me=1 / trellis=2 / 8x8dct=1 / cqm=0 / deadzone=21,11 / fast_pskip=0 / chroma_qp_offset=-3 / threads=6 / lookahead_threads=1 / sliced_threads=0 / nr=0 / decimate=1 / interlaced=0 / bluray_compat=0 / constrained_intra=0 / fgo=0 / bframes=10 / b_pyramid=2 / b_adapt=2 / b_bias=0 / direct=3 / weightb=1 / open_gop=0 / weightp=2 / keyint=250 / keyint_min=23 / scenecut=40 / intra_refresh=0 / rc=2pass / mbtree=0 / bitrate=5400 / ratetol=1.0 / qcomp=0.70 / qpmin=0 / qpmax=69 / qpstep=4 / cplxblur=20.0 / qblur=0.5 / ip_ratio=1.40 / pb_ratio=1.30 / aq=1 / aq-strength=0.75 / aq-sensitivity=10.00 / aq-ifactor=1.00 / aq-pfactor=1.00 / aq-bfactor=1.00 / aq2=0
  26. Language                                 : Japanese
  27. Default                                  : Yes
  28. Forced                                   : No

  29. Audio
  30. ID                                       : 2
  31. Format                                   : AC-3
  32. Format/Info                              : Audio Coding 3
  33. Codec ID                                 : A_AC3
  34. Duration                                 : 1 h 55 min
  35. Bit rate mode                            : Constant
  36. Bit rate                                 : 640 kb/s
  37. Channel(s)                               : 6 channels
  38. Channel positions                        : Front: L C R, Side: L R, LFE
  39. Sampling rate                            : 48.0 kHz
  40. Frame rate                               : 31.250 FPS (1536 SPF)
  41. Bit depth                                : 16 bits
  42. Compression mode                         : Lossy
  43. Stream size                              : 527 MiB (11%)
  44. Title                                    : Japanese DD 5.1 @ 640 Kbps
  45. Language                                 : Japanese
  46. Service kind                             : Complete Main
  47. Default                                  : Yes
  48. Forced                                   : No

  49. Text
  50. ID                                       : 3
  51. Format                                   : ASS
  52. Codec ID                                 : S_TEXT/ASS
  53. Codec ID/Info                            : Advanced Sub Station Alpha
  54. Duration                                 : 1 h 50 min
  55. Bit rate                                 : 78 b/s
  56. Count of elements                        : 1310
  57. Compression mode                         : Lossless
  58. Stream size                              : 63.6 KiB (0%)
  59. Title                                    : Traditional Chinese [SUBPiG]
  60. Language                                 : Chinese
  61. Default                                  : Yes
  62. Forced                                   : No

  63. Menu
  64. 00:00:00.000                             : en:00:00:00.000
  65. 00:07:04.424                             : en:00:07:04.424
  66. 00:15:04.028                             : en:00:15:04.028
  67. 00:26:01.935                             : en:00:26:01.935
  68. 00:32:42.919                             : en:00:32:42.919
  69. 00:41:47.630                             : en:00:41:47.630
  70. 00:48:33.494                             : en:00:48:33.494
  71. 00:59:56.593                             : en:00:59:56.593
  72. 01:09:34.379                             : en:01:09:34.379
  73. 01:19:20.214                             : en:01:19:20.214
  74. 01:24:42.703                             : en:01:24:42.703
  75. 01:36:30.410                             : en:01:36:30.410
  76. 01:46:30.342                             : en:01:46:30.342
  77. 01:50:21.615                             : en:01:50:21.615




复制代码














游客,如果您要查看本帖隐藏内容请回复
回复

使用道具 举报

好莱坞明星

高清币
1353
金钱
4620
鲜花
0
在线时间
1456 小时
最后登录
2018-12-10
发表于 2018-1-13 20:34:17 | 显示全部楼层
每天都来中国高清论坛看看有什么电影!
回复 支持 反对

使用道具 举报

人气偶像

高清币
18
金钱
1714
鲜花
0
在线时间
264 小时
最后登录
2018-12-9
发表于 2018-1-13 20:41:59 | 显示全部楼层
每天都来中国高清论坛看看有什么电影!
回复 支持 反对

使用道具 举报

金鸡奖主角

高清币
128
金钱
3444
鲜花
0
在线时间
532 小时
最后登录
2018-12-8
发表于 2018-1-13 20:45:30 | 显示全部楼层
中国高清论坛很棒!
回复 支持 反对

使用道具 举报

禁止发言

高清币
36
金钱
44
鲜花
0
在线时间
10 小时
最后登录
2018-1-19
发表于 2018-1-13 20:50:51 | 显示全部楼层
提示: 作者被禁止或删除 内容自动屏蔽
回复 支持 反对

使用道具 举报

人气偶像

高清币
33
金钱
659
鲜花
0
在线时间
110 小时
最后登录
2018-12-2
发表于 2018-1-13 20:52:36 | 显示全部楼层
每天都来中国高清论坛看看有什么电影!
回复 支持 反对

使用道具 举报

超级明星

高清币
193
金钱
8843
鲜花
0
在线时间
1320 小时
最后登录
2018-12-9
发表于 2018-1-13 20:53:34 | 显示全部楼层
每天都来中国高清论坛看看有什么电影!
回复 支持 反对

使用道具 举报

知名艺人

高清币
1
金钱
303
鲜花
0
在线时间
43 小时
最后登录
2018-11-24
发表于 2018-1-13 20:57:53 | 显示全部楼层
每天都来中国高清论坛看看有什么电影!
回复 支持 反对

使用道具 举报

超级明星

高清币
2512
金钱
5539
鲜花
0
在线时间
451 小时
最后登录
2018-12-8
发表于 2018-1-13 21:01:09 | 显示全部楼层
每天都来中国高清论坛看看有什么电影!
回复 支持 反对

使用道具 举报

VIP贵宾

高清币
23
金钱
159
鲜花
0
在线时间
90 小时
最后登录
2018-5-3
发表于 2018-1-13 21:11:37 | 显示全部楼层
楼主,你的高尚情哈哈太让人感动了。在现在这样一个物欲横流的金钱社会里,竟然还能见到楼主这样的性情中人,无疑是我这辈子最大的幸运。让我深深感受到了人性的伟大。
回复 支持 反对

使用道具 举报

懒得打字嘛,点击右侧快捷回复 【右侧内容,后台自定义】
您需要登录后才可以回帖 登录 | 立即注册

本版积分规则

QQ|手机版|小黑屋|中国高清论坛 ( 黔ICP备16007815号-1 )

GMT+8, 2018-12-10 09:57 , Processed in 0.092101 second(s), 30 queries .

Powered by Discuz! X3.4

© 2001-2017 Comsenz Inc.

快速回复 返回顶部 返回列表