请选择 进入手机版 | 继续访问电脑版

中国高清论坛

 找回密码
 立即注册
111
搜索
查看: 26645|回复: 3653

[家庭片] 帕丁顿熊2/柏灵顿2(港)/柏灵顿熊熊出任务(台) Paddington.2.2017.1080p.BluRay.x264.DTS-HD.MA.7.1-FGT

  [复制链接]

超级版主

高清币
975459
金钱
31063
鲜花
2
在线时间
4149 小时
最后登录
2018-12-16
发表于 2018-3-8 21:42:49 | 显示全部楼层 |阅读模式
本帖最后由 ccbby 于 2018-3-10 23:09 编辑




p2504882501.jpg
◎译  名 帕丁顿熊2/柏灵顿2(港)/柏灵顿熊熊出任务(台)
◎片  名 Paddington 2
◎年  代 2017
◎产  地 英国/法国/美国
◎类  别 喜剧/家庭
◎语  言 英语
◎上映日期 2017-11-10(英国)/2017-12-08(中国大陆)
◎IMDb评分  8.2/10 from 14,234 users
◎IMDb链接  http://www.imdb.com/title/tt4468740/
◎豆瓣评分 8.3/10 from 63,702 users
◎豆瓣链接 https://movie.douban.com/subject/26340419/
◎片  长 103分钟
◎导  演 保罗·金 Paul King
◎编  剧 保罗·金 Paul King / 迈克尔·邦德 Michael Bond / 西蒙·法纳比 Simon Farnaby
◎主  演 本·卫肖 Ben Whishaw
       休·格兰特 Hugh Grant
       休·博内威利 Hugh Bonneville
       莎莉·霍金斯 Sally Hawkins
       萨缪尔·乔斯林 Samuel Joslin
       马德琳·哈里斯 Madeleine Harris
       朱丽·沃特斯 Julie Walters
       布莱丹·格里森 Brendan Gleeson
       吉姆·布劳德本特 Jim Broadbent
       艾美达·斯丹顿 Imelda Staunton
       彼得·卡帕尔蒂 Peter Capaldi
       艾琳·阿特金斯 Eileen Atkins
       汤姆·康蒂 Tom Conti
       本·米勒 Ben Miller
       诺亚·泰勒 Noah Taylor
       理查德·艾欧阿德 Richard Ayoade






◎简  介


  露西婶婶(伊梅尔达·斯汤顿 Imelda Staunton 配音)的生日即将到来,帕丁顿(本·威士肖 Ben Whishaw 配音)决定送婶婶一份会让她终生难忘的礼物。最终,帕丁顿选中了一本立体绘本,然而这绘本是世间仅此一份的珍贵宝物,为了存钱购买绘本,帕丁顿决定开始工作,在遭遇了一连串的失败后,帕丁顿终于找到了适合他的工作——清洁玻璃窗。
  就在帕丁顿的存款即将达标之际,绘本竟然被一名神出鬼没的小偷给偷走了,同时出现在案发现场的帕丁顿被当做嫌疑犯捉拿归案,并最终被关进了监狱。在监狱里,帕丁顿凭借着自己的爱与勇气改变了墙内死气沉沉的氛围,监狱外,布朗一家人亦从来没有放弃过替帕丁顿洗清冤屈的机会。


◎获奖情况


  第71届英国电影学院奖 ?(2018)
  电影奖最佳英国影片(提名)
  电影奖最佳男配角(提名) 休·格兰特
  电影奖最佳改编剧本(提名) 保罗·金?/?西蒙·法纳比
  
  第4届豆瓣电影年度榜单 ?(2017)
  评分最高的欧洲电影(提名)
  评分最高的喜剧片
  12月最受关注电影(提名)
  1. Video
  2. ID                                       : 1
  3. Format                                   : AVC
  4. Format/Info                              : Advanced Video Codec
  5. Format profile                           : High@L4.1
  6. Format settings                          : CABAC / 5 Ref Frames
  7. Format settings, CABAC                   : Yes
  8. Format settings, ReFrames                : 5 frames
  9. Codec ID                                 : V_MPEG4/ISO/AVC
  10. Duration                                 : 1 h 43 min
  11. Bit rate                                 : 11.8 Mb/s
  12. Width                                    : 1 920 pixels
  13. Height                                   : 800 pixels
  14. Display aspect ratio                     : 2.40:1
  15. Frame rate mode                          : Constant
  16. Frame rate                               : 24.000 FPS
  17. Color space                              : YUV
  18. Chroma subsampling                       : 4:2:0
  19. Bit depth                                : 8 bits
  20. Scan type                                : Progressive
  21. Bits/(Pixel*Frame)                       : 0.321
  22. Stream size                              : 8.54 GiB (75%)
  23. Title                                    : Paddington.2.2017.1080p.BluRay.x264.DTS-HD.MA.7.1-FGT
  24. Writing library                          : x264 core 148 r2795M aaa9aa8
  25. Encoding settings                        : cabac=1 / ref=5 / deblock=1:0:0 / analyse=0x3:0x133 / me=umh / subme=10 / psy=1 / psy_rd=1.00:0.00 / mixed_ref=1 / me_range=24 / chroma_me=1 / trellis=2 / 8x8dct=1 / cqm=0 / deadzone=21,11 / fast_pskip=1 / chroma_qp_offset=-2 / threads=24 / lookahead_threads=4 / sliced_threads=0 / nr=0 / decimate=1 / interlaced=0 / bluray_compat=0 / constrained_intra=0 / bframes=8 / b_pyramid=2 / b_adapt=2 / b_bias=0 / direct=3 / weightb=1 / open_gop=0 / weightp=2 / keyint=240 / keyint_min=24 / scenecut=40 / intra_refresh=0 / rc_lookahead=60 / rc=crf / mbtree=1 / crf=15.0 / qcomp=0.60 / qpmin=0 / qpmax=69 / qpstep=4 / ip_ratio=1.40 / aq=1:1.00
  26. Language                                 : English
  27. Default                                  : Yes
  28. Forced                                   : No

  29. Audio
  30. ID                                       : 2
  31. Format                                   : DTS
  32. Format/Info                              : Digital Theater Systems
  33. Format profile                           : MA / Core
  34. Codec ID                                 : A_DTS
  35. Duration                                 : 1 h 43 min
  36. Bit rate mode                            : Variable / Constant
  37. Bit rate                                 : 3 959 kb/s / 1 509 kb/s
  38. Channel(s)                               : 8 channels / 6 channels
  39. Channel positions                        : Front: L C R, Side: L R, Back: L R, LFE / Front: L C R, Side: L R, LFE
  40. Sampling rate                            : 48.0 kHz
  41. Frame rate                               : 93.750 FPS (512 SPF)
  42. Bit depth                                : 24 bits
  43. Compression mode                         : Lossless / Lossy
  44. Stream size                              : 2.86 GiB (25%)
  45. Title                                    : Paddington.2.2017.1080p.BluRay.x264.DTS-HD.MA.7.1-FGT
  46. Language                                 : English
  47. Default                                  : No
  48. Forced                                   : No

  49. Text #1
  50. ID                                       : 3
  51. Format                                   : UTF-8
  52. Codec ID                                 : S_TEXT/UTF8
  53. Codec ID/Info                            : UTF-8 Plain Text
  54. Duration                                 : 1 h 39 min
  55. Bit rate                                 : 67 b/s
  56. Count of elements                        : 1454
  57. Stream size                              : 49.0 KiB (0%)
  58. Title                                    : English-SRT
  59. Language                                 : English
  60. Default                                  : Yes
  61. Forced                                   : No

  62. Text #2
  63. ID                                       : 4
  64. Format                                   : PGS
  65. Muxing mode                              : zlib
  66. Codec ID                                 : S_HDMV/PGS
  67. Codec ID/Info                            : Picture based subtitle format used on BDs/HD-DVDs
  68. Duration                                 : 1 h 39 min
  69. Bit rate                                 : 58.7 kb/s
  70. Count of elements                        : 3646
  71. Stream size                              : 41.7 MiB (0%)
  72. Title                                    : English-PGS
  73. Language                                 : English
  74. Default                                  : No
  75. Forced                                   : No

  76. Menu
  77. 00:00:00.000                             : en:Chapter 01
  78. 00:08:08.500                             : en:Chapter 02
  79. 00:18:48.541                             : en:Chapter 03
  80. 00:27:05.958                             : en:Chapter 04
  81. 00:38:47.333                             : en:Chapter 05
  82. 00:47:46.875                             : en:Chapter 06
  83. 00:55:53.666                             : en:Chapter 07
  84. 01:02:17.458                             : en:Chapter 08
  85. 01:09:31.833                             : en:Chapter 09
  86. 01:16:39.000                             : en:Chapter 10
  87. 01:24:13.208                             : en:Chapter 11
  88. 01:33:50.208                             : en:Chapter 12
复制代码







字幕在本站字幕区
游客,如果您要查看本帖隐藏内容请回复
回复

使用道具 举报

VIP贵宾

高清币
1
金钱
1628
鲜花
0
在线时间
746 小时
最后登录
2018-12-14
发表于 2018-3-8 21:45:38 | 显示全部楼层
回复 支持 反对

使用道具 举报

人气偶像

高清币
222
金钱
1017
鲜花
0
在线时间
281 小时
最后登录
2018-6-4
发表于 2018-3-8 21:45:55 | 显示全部楼层
感谢楼主分享精彩电影!
回复 支持 反对

使用道具 举报

天王巨星

高清币
209
金钱
2614
鲜花
0
在线时间
474 小时
最后登录
2018-12-15
发表于 2018-3-8 21:48:33 | 显示全部楼层
我看不错噢 谢谢楼主!
回复 支持 反对

使用道具 举报

永恒神话

高清币
10899
金钱
11362
鲜花
0
在线时间
402 小时
最后登录
2018-8-10
发表于 2018-3-8 21:49:45 | 显示全部楼层
感谢楼主分享精彩电影!
回复 支持 反对

使用道具 举报

天王巨星

高清币
6
金钱
2167
鲜花
0
在线时间
384 小时
最后登录
2018-12-14
发表于 2018-3-8 21:51:32 | 显示全部楼层
楼主分享的高清电影太好了!
回复 支持 反对

使用道具 举报

人气偶像

高清币
126
金钱
470
鲜花
0
在线时间
61 小时
最后登录
2018-10-29
发表于 2018-3-8 21:52:46 | 显示全部楼层
感谢楼主分享精彩电影!
回复 支持 反对

使用道具 举报

超级明星

高清币
1954
金钱
8341
鲜花
0
在线时间
3733 小时
最后登录
2018-12-16
发表于 2018-3-8 21:55:56 | 显示全部楼层
感谢楼主分享精彩电影!
回复 支持 反对

使用道具 举报

天王巨星

高清币
304
金钱
1944
鲜花
0
在线时间
279 小时
最后登录
2018-12-15
发表于 2018-3-8 21:56:53 | 显示全部楼层
每天都来中国高清论坛看看有什么电影!
回复 支持 反对

使用道具 举报

天王巨星

高清币
25
金钱
2242
鲜花
0
在线时间
592 小时
最后登录
2018-12-14
发表于 2018-3-8 21:59:56 | 显示全部楼层
回复 支持 反对

使用道具 举报

懒得打字嘛,点击右侧快捷回复 【右侧内容,后台自定义】
您需要登录后才可以回帖 登录 | 立即注册

本版积分规则

QQ|手机版|小黑屋|中国高清论坛 ( 黔ICP备16007815号-1 )

GMT+8, 2018-12-16 05:46 , Processed in 0.165959 second(s), 31 queries .

Powered by Discuz! X3.4

© 2001-2017 Comsenz Inc.

快速回复 返回顶部 返回列表