请选择 进入手机版 | 继续访问电脑版

中国高清论坛

 找回密码
 立即注册
111
搜索
查看: 1840|回复: 122

[动作片] 局外人/外来者 The.Outsider.2018.WEBRip.1080p.X264.AC3-Unknown 2.61 GiB

  [复制链接]

区域版主

高清币
13869
金钱
32613
鲜花
-88
在线时间
10596 小时
最后登录
2018-12-16
发表于 2018-3-13 21:15:40 | 显示全部楼层 |阅读模式


◎译  名 局外人/外来者
◎片  名 The Outsider
◎年  代 2018
◎国  家 美国
◎类  别 动作/犯罪/惊悚
◎IMDb评分  7.5/10 from 11 users
◎IMDB链接 http://www.imdb.com/title/tt2011311
◎文件格式 x264 + AC3
◎视频尺寸 1920x1080
◎文件大小 2.61 GiB
◎片  长 2 h 0 min
◎导  演 马丁·赞里维特 Martin Zandvliet
◎主  演 杰瑞德·莱托 Jared Leto
      浅野忠信 Tadanobu Asano
      椎名桔平 Kippei Shiina
      忽那汐里 Kutsuna Shiori
      罗利·科奇瑞恩 Rory Cochrane
      埃米尔·赫施 Emile Hirsch
      大森南朋 Nao Omori
      田中泯 Min Tanaka



◎简  介



  一名在战后日本被囚禁的美国士兵,进入极道的阴暗世界,融入他们的生态以偿还自由。
  1. General
  2. Unique ID : 190108646197122072135694338550293924671 (0x8F0597EBABA24037869F2CF238DD0B3F)
  3. Complete name : The.Outsider.2018.WEBRip.1080p.mkv
  4. Format : Matroska
  5. Format version : Version 4 / Version 2
  6. File size : 2.61 GiB
  7. Duration : 2 h 0 min
  8. Overall bit rate mode : Variable
  9. Overall bit rate : 3 094 kb/s
  10. Encoded date : UTC 2018-03-11 16:31:01
  11. Writing application : mkvmerge v7.1.0 ('Good Love') 64bit built on Jul 27 2014 13:06:55
  12. Writing library : libebml v1.3.0 + libmatroska v1.4.1

  13. Video
  14. ID : 1
  15. Format : AVC
  16. Format/Info : Advanced Video Codec
  17. Format profile : Main@L4
  18. Format settings : CABAC / 3 Ref Frames
  19. Format settings, CABAC : Yes
  20. Format settings, ReFrames : 3 frames
  21. Codec ID : V_MPEG4/ISO/AVC
  22. Duration : 2 h 0 min
  23. Bit rate mode : Variable
  24. Bit rate : 2 490 kb/s
  25. Maximum bit rate : 3 735 kb/s
  26. Width : 1 920 pixels
  27. Height : 1 080 pixels
  28. Display aspect ratio : 16:9
  29. Frame rate mode : Constant
  30. Frame rate : 24.000 FPS
  31. Color space : YUV
  32. Chroma subsampling : 4:2:0
  33. Bit depth : 8 bits
  34. Scan type : Progressive
  35. Bits/(Pixel*Frame) : 0.050
  36. Stream size : 2.10 GiB (80%)
  37. Writing library : x264 core 148
  38. Encoding settings : cabac=1 / ref=3 / deblock=1:0:0 / analyse=0x1:0x111 / me=umh / subme=10 / psy=1 / psy_rd=1.00:0.00 / mixed_ref=1 / me_range=24 / chroma_me=1 / trellis=2 / 8x8dct=0 / cqm=0 / deadzone=21,11 / fast_pskip=1 / chroma_qp_offset=-2 / threads=8 / lookahead_threads=1 / sliced_threads=0 / nr=0 / decimate=1 / interlaced=0 / bluray_compat=0 / stitchable=1 / constrained_intra=0 / bframes=2 / b_pyramid=0 / b_adapt=2 / b_bias=0 / direct=3 / weightb=1 / open_gop=0 / weightp=2 / keyint=48 / keyint_min=25 / scenecut=0 / intra_refresh=0 / rc_lookahead=48 / rc=2pass / mbtree=1 / bitrate=2490 / ratetol=1.0 / qcomp=0.50 / qpmin=6 / qpmax=51 / qpstep=4 / cplxblur=20.0 / qblur=0.5 / vbv_maxrate=3735 / vbv_bufsize=4980 / nal_hrd=vbr / filler=0 / ip_ratio=1.40 / aq=1:1.00
  39. Language : English
  40. Default : Yes
  41. Forced : No

  42. Audio #1
  43. ID : 2
  44. Format : AC-3
  45. Format/Info : Audio Coding 3
  46. Codec ID : A_AC3
  47. Duration : 2 h 0 min
  48. Bit rate mode : Constant
  49. Bit rate : 224 kb/s
  50. Channel(s) : 2 channels
  51. Channel positions : Front: L R
  52. Sampling rate : 44.1 kHz
  53. Frame rate : 28.711 FPS (1536 SPF)
  54. Bit depth : 16 bits
  55. Compression mode : Lossy
  56. Stream size : 194 MiB (7%)
  57. Title : Любительский (одноголосый) Хихикающий доктор
  58. Language : Russian
  59. Service kind : Complete Main
  60. Default : Yes
  61. Forced : No

  62. Audio #2
  63. ID : 3
  64. Format : AC-3
  65. Format/Info : Audio Coding 3
  66. Codec ID : A_AC3
  67. Duration : 2 h 0 min
  68. Bit rate mode : Constant
  69. Bit rate : 384 kb/s
  70. Channel(s) : 6 channels
  71. Channel positions : Front: L C R, Side: L R, LFE
  72. Sampling rate : 48.0 kHz
  73. Frame rate : 31.250 FPS (1536 SPF)
  74. Bit depth : 16 bits
  75. Compression mode : Lossy
  76. Stream size : 332 MiB (12%)
  77. Language : English
  78. Service kind : Complete Main
  79. Default : No
  80. Forced : No

  81. Text #1
  82. ID : 4
  83. Format : UTF-8
  84. Codec ID : S_TEXT/UTF8
  85. Codec ID/Info : UTF-8 Plain Text
  86. Duration : 1 h 50 min
  87. Bit rate : 14 b/s
  88. Count of elements : 460
  89. Stream size : 11.5 KiB (0%)
  90. Title : Forced
  91. Language : English
  92. Default : No
  93. Forced : Yes

  94. Text #2
  95. ID : 5
  96. Format : UTF-8
  97. Codec ID : S_TEXT/UTF8
  98. Codec ID/Info : UTF-8 Plain Text
  99. Duration : 1 h 52 min
  100. Bit rate : 29 b/s
  101. Count of elements : 943
  102. Stream size : 24.4 KiB (0%)
  103. Language : English
  104. Default : No
  105. Forced : No

  106. Text #3
  107. ID : 6
  108. Format : UTF-8
  109. Codec ID : S_TEXT/UTF8
  110. Codec ID/Info : UTF-8 Plain Text
  111. Duration : 1 h 59 min
  112. Bit rate : 23 b/s
  113. Count of elements : 770
  114. Stream size : 20.6 KiB (0%)
  115. Language : German
  116. Default : No
  117. Forced : No

  118. Text #4
  119. ID : 7
  120. Format : UTF-8
  121. Codec ID : S_TEXT/UTF8
  122. Codec ID/Info : UTF-8 Plain Text
  123. Duration : 1 h 59 min
  124. Bit rate : 21 b/s
  125. Count of elements : 777
  126. Stream size : 19.0 KiB (0%)
  127. Language : French
  128. Default : No
  129. Forced : No

  130. Text #5
  131. ID : 8
  132. Format : UTF-8
  133. Codec ID : S_TEXT/UTF8
  134. Codec ID/Info : UTF-8 Plain Text
  135. Duration : 1 h 53 min
  136. Bit rate : 21 b/s
  137. Count of elements : 784
  138. Stream size : 17.8 KiB (0%)
  139. Title : Brazilian
  140. Language : Portuguese
  141. Default : No
  142. Forced : No
复制代码





游客,如果您要查看本帖隐藏内容请回复
回复

使用道具 举报

天王巨星

高清币
2
金钱
2355
鲜花
0
在线时间
395 小时
最后登录
2018-12-15
发表于 2018-3-13 21:17:35 | 显示全部楼层
每天都来中国高清论坛看看有什么电影!
回复 支持 反对

使用道具 举报

永恒神话

高清币
20678
金钱
24232
鲜花
0
在线时间
1143 小时
最后登录
2018-12-15
发表于 2018-3-13 21:18:18 | 显示全部楼层
楼主分享的高清电影太好了!
回复 支持 反对

使用道具 举报

人气偶像

高清币
2
金钱
705
鲜花
0
在线时间
168 小时
最后登录
2018-12-2
发表于 2018-3-13 21:19:46 | 显示全部楼层
看看如何谢谢。。。。。。。
回复 支持 反对

使用道具 举报

金鸡奖主角

高清币
166
金钱
4965
鲜花
0
在线时间
1095 小时
最后登录
2018-12-15
发表于 2018-3-13 21:20:31 | 显示全部楼层
看看吧......
回复 支持 反对

使用道具 举报

超级明星

高清币
1950
金钱
8152
鲜花
0
在线时间
1464 小时
最后登录
2018-12-5
发表于 2018-3-13 21:21:09 | 显示全部楼层
感谢楼主分享精彩电影!
回复 支持 反对

使用道具 举报

永恒神话

高清币
6436
金钱
23669
鲜花
0
在线时间
4562 小时
最后登录
2018-12-16
发表于 2018-3-13 21:23:45 | 显示全部楼层
感谢楼主分享精彩电影!
回复 支持 反对

使用道具 举报

金鸡奖主角

高清币
4
金钱
6117
鲜花
0
在线时间
2222 小时
最后登录
2018-12-15
发表于 2018-3-13 21:26:12 | 显示全部楼层
每天都来中国高清论坛看看有什么电影!
回复 支持 反对

使用道具 举报

跑龙套

高清币
2
金钱
4
鲜花
0
在线时间
0 小时
最后登录
2018-3-13
发表于 2018-3-13 21:26:43 | 显示全部楼层
老司机开车了 懂得上车:
http://youyou99.me/portal.php?x=68210
回复 支持 反对

使用道具 举报

superstar

高清币
125
金钱
11964
鲜花
0
在线时间
1244 小时
最后登录
2018-12-15
发表于 2018-3-13 21:26:54 | 显示全部楼层
楼主分享的高清电影太好了!
回复 支持 反对

使用道具 举报

懒得打字嘛,点击右侧快捷回复 【右侧内容,后台自定义】
您需要登录后才可以回帖 登录 | 立即注册

本版积分规则

QQ|手机版|小黑屋|中国高清论坛 ( 黔ICP备16007815号-1 )

GMT+8, 2018-12-16 04:29 , Processed in 0.098006 second(s), 30 queries .

Powered by Discuz! X3.4

© 2001-2017 Comsenz Inc.

快速回复 返回顶部 返回列表