请选择 进入手机版 | 继续访问电脑版

中国高清论坛

 找回密码
 立即注册
111
搜索
查看: 1422|回复: 117

[动作片] 星球大战8:最后的绝地武士/星球大战8/星战8/星球大战:最后绝地武士(港) Video111Star.Wars.The.Last.Jedi.2017.BDRi

  [复制链接]

区域版主

高清币
13869
金钱
32613
鲜花
-88
在线时间
10596 小时
最后登录
2018-12-16
发表于 2018-3-13 21:15:50 | 显示全部楼层 |阅读模式


◎译  名 星球大战8:最后的绝地武士/星球大战8/星战8/星球大战:最后绝地武士(港)
◎片  名 Star Wars: The Last Jedi
◎年  代 2017
◎国  家 美国
◎类  别 动作/科幻/冒险
◎语  言 英语...
◎字  幕 英文...
◎IMDb评分  7.4/10 from 324948 users
◎IMDB链接 http://www.imdb.com/title/tt2527336
◎文件格式 x264 + DTS
◎视频尺寸 1920x804
◎文件大小 12.08 GiB
◎片  长 2h 31mn
◎导  演 莱恩·约翰逊 Rian Johnson
◎主  演 马克·哈米尔 Mark Hamill
                     凯丽·费雪 Carrie Fisher
                     黛西·雷德利 Daisy Ridley
                     亚当·德赖弗 Adam Driver
                     约翰·博耶加 John Boyega
                     奥斯卡·伊萨克 Oscar Isaac
                     安迪·瑟金斯 Andy Serkis
                     露皮塔·尼永奥 Lupita Nyong'o
                     多姆纳尔·格里森 Domhnall Gleeson
                     安东尼·丹尼尔斯 Anthony Daniels
                     格温多兰·克里斯蒂 Gwendoline Christie
                     凯莉·玛丽·陈 Kelly Marie Tran
                     劳拉·邓恩 Laura Dern
                     本尼西奥·德尔·托罗 Benicio Del Toro
                     弗兰克·奥兹 Frank Oz
                     比莉·洛德 Billie Lourd
                     阿曼达·劳伦斯 Amanda Lawrence
                     吉米·维 Jimmy Vee
                     贾斯汀·塞洛克斯 Justin Theroux
                     蒂姆·罗斯 Tim Rose
                     汤姆·凯恩 Tom Kane
                     亚德里安·埃德蒙松 Adrian Edmondson
                     马克·路易斯·琼斯 Mark Lewis Jones
                     赫敏·科菲尔德 Hermione Corfield
                     吴青芸 Thanh Van Ngo
                     诺阿·西甘 Noah Segan
                     保罗·卡塞 Paul Kasey
                     米凯拉·科尔 Michaela Coel
                     普瑞扬咖·伯福德 Priyanga Burford
                     纳温·乔杜里 Navin Chowdhry
                     安德鲁·杰克 Andrew Jack
                     克里斯塔·克拉克 Crystal Clarke
                     伊川东吾 Togo Igawa

◎简  介

  《星球大战:最后的绝地武士》承接前作《星球大战:原力觉醒》的剧情,讲述第一军团全面侵袭之下,蕾伊(黛西·雷德利 Daisy Ridley 饰)、芬恩(约翰·博耶加 John Boyega 饰)、波·达默龙(奥斯卡·伊萨克 Oscar Isaac 饰)三位年轻主角各自的抉 择和冒险故事。前作中觉醒强大原力的蕾伊独自寻访隐居的绝地大师卢克·天行者(马克·哈米尔 Mark Hamill 饰),在后者的指导下接受原力训练。芬恩接受了一项几乎不可能完成的任务,为此他不得不勇闯敌营,面对自己的过去。波·达默龙则要适应从战士向领袖的角色转换,这一过程中他也将接受一些血的教训。

花絮

.莱恩·约翰逊在编写与导演《星球大战:最后的绝地武士》的过程中,曾从《晴空血战史》(1949)、《捉贼记》(1955)、《三匹之侍》(1964)等经典影片中汲取灵感。

.在《星球大战:最后的绝地武士》电影拍摄过程中,导演莱恩·约翰逊的脖子上始终挂着他的35mm相机,拍下各种有趣的场景。约翰逊还在千年隼号上签名,并拍照留念。

.莱恩·约翰逊曾在《星球大战外传:侠盗一号》中有简短的露面,客串死星上的一名帝国炮兵技术员。

.电影中布景规模庞大,共搭建了120个场景,使用到松林制片厂的所有内外景场地、伦敦Longcross电影工作室,并在位于克罗地亚的杜布罗夫尼克和爱尔兰狂野大西洋之路的两地进行海外取景。

.此次影片有许多与前几部电影相似的场景,包括千年隼号、抵抗组织巡洋舰、战斗机机库、矿场控制中心、第一军团、歼星舰、“宏大级” 歼星舰以及大反派凯洛·伦的舱室。

.全新创造的场景有:绝地行星阿克托、坎托湾、行星克瑞特以及最高领袖斯努克的王座室。

.在电影制作前,艺术指导里克·海恩里奇斯参阅大量天行者农场的资料与图片,并自行创建了一个巨大的资料库,分享给他的团队,共同研究欣赏乔治·卢卡斯对《星球大战》最初的设计。

.绝地武士村出于实际操作和安全原因无法直接搭建。因此制作团队先根据僧侣们居住的岛屿小屋,在松林制片厂的外景片场创造出一系列蜂笼形状的小屋,然后将其运送至爱尔兰,在悬崖上进行重建。

.电影团队在松林制片厂中重新搭建了千年隼号的内景部分,再将千年隼号的外壳连同着陆平台一起运往伦敦Longcross电影工作室,安装放置在19吨重的绝地之树下。

.坎托湾赌场规模庞大,横跨松林制片厂的两个片场,赌场外景搭建在Longcross工作室,而赌场所处的坎托湾则建在中世纪古城杜布罗夫尼克,打斗场景即在此拍摄。整个赌场布景共花费16个星期进行搭建。

.坎托湾赌场中的人物服装成为了服装设计师迈克尔·卡普兰与他团队最大的挑战,他们为此制作了数百套服装,每套都拥有独一无二的设计,总工程占据了整部电影的服装设计三分之二的时间。

.全新的世界和场景,就需要更多新生物。创意总监尼尔·斯坎兰和他的团队为此设计了130种新生物,满足各个特殊场景的需要。

.斯坎兰和他的团队还创造出波格鸟,栖息在天行者卢克藏身的阿克托星球上。广受大家喜爱的波格鸟是海雀、猫头鹰和小海豹的合体,让人忍不住想带回家!

获奖记录

奥斯卡金像奖(2018;第90届)
提名
·奥斯卡奖-最佳原创配乐约翰·威廉姆斯 John Williams  
·奥斯卡奖-最佳音效剪辑马修·伍德 Matthew Wood   Ren Klyce  
·奥斯卡奖-最佳音响效果 Michael Semanick   David Parker  斯图亚特·威尔逊 Stuart Wilson   Ren Klyce  
·奥斯卡奖-最佳视觉效果 Ben Morris   Michael Mulholland  尼尔·斯坎兰 Neal Scanlan  克里斯·科博尔德 Chris Corbould
  1. General
  2. Unique ID : 289180760828403481016468732719646216497 (0xD98E304C274D61D71CDC748764FD9131)
  3. Complete name : C:Video111Star.Wars.The.Last.Jedi.2017.BDRip.1080p.ExKinoRay.mkv
  4. Format : Matroska
  5. Format version : Version 4 / Version 2
  6. File size : 16.3 GiB
  7. Duration : 2 h 32 min
  8. Overall bit rate : 15.3 Mb/s
  9. Movie name : Star Wars The Last Jedi 2017 from ExKinoRay
  10. Encoded date : UTC 2018-03-12 19:08:28
  11. Writing application : mkvmerge v21.0.0 ('Tardigrades Will Inherit The Earth') 64-bit
  12. Writing library : libebml v1.3.5 + libmatroska v1.4.8

  13. Video
  14. ID : 1
  15. Format : AVC
  16. Format/Info : Advanced Video Codec
  17. Format profile : High@L4.1
  18. Format settings : CABAC / 5 Ref Frames
  19. Format settings, CABAC : Yes
  20. Format settings, ReFrames : 5 frames
  21. Codec ID : V_MPEG4/ISO/AVC
  22. Duration : 2 h 31 min
  23. Bit rate : 13.5 Mb/s
  24. Width : 1 920 pixels
  25. Height : 804 pixels
  26. Display aspect ratio : 2.40:1
  27. Frame rate mode : Constant
  28. Frame rate : 23.976 (24000/1001) FPS
  29. Color space : YUV
  30. Chroma subsampling : 4:2:0
  31. Bit depth : 8 bits
  32. Scan type : Progressive
  33. Bits/(Pixel*Frame) : 0.364
  34. Stream size : 14.3 GiB (88%)
  35. Writing library : x264 core 152 r2851kMod ba24899
  36. Encoding settings : cabac=1 / ref=5 / deblock=1:-3:-3 / analyse=0x3:0x133 / me=umh / subme=10 / psy=1 / fade_compensate=0.00 / psy_rd=1.00:0.00 / mixed_ref=1 / me_range=32 / chroma_me=1 / trellis=2 / 8x8dct=1 / cqm=0 / deadzone=21,11 / fast_pskip=0 / chroma_qp_offset=-2 / threads=18 / lookahead_threads=3 / sliced_threads=0 / nr=0 / decimate=1 / interlaced=0 / bluray_compat=0 / constrained_intra=0 / bframes=7 / b_pyramid=2 / b_adapt=2 / b_bias=0 / direct=1 / weightb=1 / open_gop=0 / weightp=2 / keyint=240 / keyint_min=23 / scenecut=40 / intra_refresh=0 / rc_lookahead=60 / rc=crf / mbtree=0 / crf=17.2000 / qcomp=0.60 / qpmin=0 / qpmax=69 / qpstep=4 / vbv_maxrate=50000 / vbv_bufsize=62500 / crf_max=0.0 / nal_hrd=none / filler=0 / ip_ratio=1.35 / pb_ratio=1.25 / aq=3:0.80
  37. Language : English
  38. Default : Yes
  39. Forced : No
  40. Color range : Limited
  41. Color primaries : BT.709
  42. Transfer characteristics : BT.709
  43. Matrix coefficients : BT.709

  44. Audio #1
  45. ID : 2
  46. Format : AC-3
  47. Format/Info : Audio Coding 3
  48. Codec ID : A_AC3
  49. Duration : 2 h 32 min
  50. Bit rate mode : Constant
  51. Bit rate : 384 kb/s
  52. Channel(s) : 6 channels
  53. Channel positions : Front: L C R, Side: L R, LFE
  54. Sampling rate : 48.0 kHz
  55. Frame rate : 31.250 FPS (1536 SPF)
  56. Bit depth : 16 bits
  57. Compression mode : Lossy
  58. Stream size : 418 MiB (3%)
  59. Title : iTunes
  60. Language : Russian
  61. Service kind : Complete Main
  62. Default : Yes
  63. Forced : Yes

  64. Audio #2
  65. ID : 3
  66. Format : DTS
  67. Format/Info : Digital Theater Systems
  68. Codec ID : A_DTS
  69. Duration : 2 h 31 min
  70. Bit rate mode : Constant
  71. Bit rate : 1 509 kb/s
  72. Channel(s) : 6 channels
  73. Channel positions : Front: L C R, Side: L R, LFE
  74. Sampling rate : 48.0 kHz
  75. Frame rate : 93.750 FPS (512 SPF)
  76. Bit depth : 24 bits
  77. Compression mode : Lossy
  78. Stream size : 1.60 GiB (10%)
  79. Title : Original
  80. Language : English
  81. Default : No
  82. Forced : No

  83. Text #1
  84. ID : 4
  85. Format : UTF-8
  86. Codec ID : S_TEXT/UTF8
  87. Codec ID/Info : UTF-8 Plain Text
  88. Duration : 2 h 20 min
  89. Bit rate : 64 b/s
  90. Count of elements : 1580
  91. Stream size : 66.9 KiB (0%)
  92. Title : Full [iTunes]
  93. Language : Russian
  94. Default : No
  95. Forced : No

  96. Text #2
  97. ID : 5
  98. Format : UTF-8
  99. Codec ID : S_TEXT/UTF8
  100. Codec ID/Info : UTF-8 Plain Text
  101. Duration : 2 h 23 min
  102. Bit rate : 73 b/s
  103. Count of elements : 1980
  104. Stream size : 77.4 KiB (0%)
  105. Title : SDH [iTunes]
  106. Language : Russian
  107. Default : No
  108. Forced : No

  109. Text #3
  110. ID : 6
  111. Format : UTF-8
  112. Codec ID : S_TEXT/UTF8
  113. Codec ID/Info : UTF-8 Plain Text
  114. Duration : 2 h 20 min
  115. Bit rate : 39 b/s
  116. Count of elements : 1569
  117. Stream size : 40.4 KiB (0%)
  118. Title : Full
  119. Language : English
  120. Default : No
  121. Forced : No

  122. Text #4
  123. ID : 7
  124. Format : UTF-8
  125. Codec ID : S_TEXT/UTF8
  126. Codec ID/Info : UTF-8 Plain Text
  127. Duration : 2 h 23 min
  128. Bit rate : 45 b/s
  129. Count of elements : 1897
  130. Stream size : 47.9 KiB (0%)
  131. Title : SDH
  132. Language : English
  133. Default : No
  134. Forced : No

  135. Text #5
  136. ID : 8
  137. Format : UTF-8
  138. Codec ID : S_TEXT/UTF8
  139. Codec ID/Info : UTF-8 Plain Text
  140. Duration : 2 h 23 min
  141. Bit rate : 64 b/s
  142. Count of elements : 1898
  143. Stream size : 68.3 KiB (0%)
  144. Title : SDH Colored
  145. Language : English
  146. Default : No
  147. Forced : No

  148. Menu
  149. 00:00:00.000 : en:00:00:00.000
  150. 00:00:18.644 : en:00:00:18.644
  151. 00:01:45.731 : en:00:01:45.731
  152. 00:03:11.817 : en:00:03:11.817
  153. 00:07:43.296 : en:00:07:43.296
  154. 00:12:48.434 : en:00:12:48.434
  155. 00:13:44.574 : en:00:13:44.574
  156. 00:16:29.280 : en:00:16:29.280
  157. 00:19:59.281 : en:00:19:59.281
  158. 00:22:51.370 : en:00:22:51.370
  159. 00:26:04.980 : en:00:26:04.980
  160. 00:27:22.850 : en:00:27:22.850
  161. 00:31:24.758 : en:00:31:24.758
  162. 00:32:54.681 : en:00:32:54.681
  163. 00:35:27.667 : en:00:35:27.667
  164. 00:38:11.498 : en:00:38:11.498
  165. 00:41:53.428 : en:00:41:53.428
  166. 00:44:29.542 : en:00:44:29.542
  167. 00:46:51.475 : en:00:46:51.475
  168. 00:51:41.932 : en:00:51:41.932
  169. 00:53:50.060 : en:00:53:50.060
  170. 00:55:41.505 : en:00:55:41.505
  171. 00:57:39.581 : en:00:57:39.581
  172. 00:59:16.636 : en:00:59:16.636
  173. 01:02:05.847 : en:01:02:05.847
  174. 01:03:07.701 : en:01:03:07.701
  175. 01:05:41.729 : en:01:05:41.729
  176. 01:07:03.478 : en:01:07:03.478
  177. 01:10:25.721 : en:01:10:25.721
  178. 01:13:30.323 : en:01:13:30.323
  179. 01:17:43.450 : en:01:17:43.450
  180. 01:20:53.057 : en:01:20:53.057
  181. 01:24:17.970 : en:01:24:17.970
  182. 01:26:23.220 : en:01:26:23.220
  183. 01:27:59.524 : en:01:27:59.524
  184. 01:30:49.361 : en:01:30:49.361
  185. 01:32:54.569 : en:01:32:54.569
  186. 01:35:53.706 : en:01:35:53.706
  187. 01:37:10.616 : en:01:37:10.616
  188. 01:39:12.864 : en:01:39:12.864
  189. 01:42:07.663 : en:01:42:07.663
  190. 01:45:03.714 : en:01:45:03.714
  191. 01:49:35.694 : en:01:49:35.694
  192. 01:52:20.609 : en:01:52:20.609
  193. 01:56:04.749 : en:01:56:04.749
  194. 01:58:52.083 : en:01:58:52.083
  195. 02:03:11.134 : en:02:03:11.134
  196. 02:06:39.759 : en:02:06:39.759
  197. 02:11:43.604 : en:02:11:43.604
  198. 02:15:12.104 : en:02:15:12.104
  199. 02:20:16.700 : en:02:20:16.700
  200. 02:23:39.694 : en:02:23:39.694
复制代码







游客,如果您要查看本帖隐藏内容请回复
回复

使用道具 举报

永恒神话

高清币
20678
金钱
24232
鲜花
0
在线时间
1143 小时
最后登录
2018-12-15
发表于 2018-3-13 21:18:37 | 显示全部楼层
感谢楼主分享精彩电影!
回复 支持 反对

使用道具 举报

天王巨星

高清币
0
金钱
2381
鲜花
0
在线时间
797 小时
最后登录
2018-12-15
发表于 2018-3-13 21:18:42 | 显示全部楼层
感谢楼主分享精彩
回复 支持 反对

使用道具 举报

金鸡奖主角

高清币
311
金钱
3298
鲜花
0
在线时间
793 小时
最后登录
2018-12-16
发表于 2018-3-13 21:19:02 | 显示全部楼层
thank you
回复 支持 反对

使用道具 举报

知名艺人

高清币
1
金钱
143
鲜花
0
在线时间
10 小时
最后登录
2018-9-28
发表于 2018-3-13 21:19:29 | 显示全部楼层

中国高清论坛很棒!
回复 支持 反对

使用道具 举报

超级明星

高清币
1950
金钱
8152
鲜花
0
在线时间
1464 小时
最后登录
2018-12-5
发表于 2018-3-13 21:20:43 | 显示全部楼层
每天都来中国高清论坛看看有什么电影!
回复 支持 反对

使用道具 举报

天王巨星

高清币
144
金钱
1963
鲜花
0
在线时间
354 小时
最后登录
2018-12-1
发表于 2018-3-13 21:23:01 | 显示全部楼层
中国高清论坛很棒!
回复 支持 反对

使用道具 举报

永恒神话

高清币
6436
金钱
23669
鲜花
0
在线时间
4562 小时
最后登录
2018-12-16
发表于 2018-3-13 21:23:06 | 显示全部楼层
感谢楼主分享精彩电影!
回复 支持 反对

使用道具 举报

superstar

高清币
1433
金钱
13390
鲜花
0
在线时间
1218 小时
最后登录
2018-12-15
发表于 2018-3-13 21:24:26 | 显示全部楼层

我看不错噢 谢谢楼主!
回复 支持 反对

使用道具 举报

superstar

高清币
125
金钱
11964
鲜花
0
在线时间
1244 小时
最后登录
2018-12-15
发表于 2018-3-13 21:25:05 | 显示全部楼层
中国高清论坛很棒!
回复 支持 反对

使用道具 举报

懒得打字嘛,点击右侧快捷回复 【右侧内容,后台自定义】
您需要登录后才可以回帖 登录 | 立即注册

本版积分规则

QQ|手机版|小黑屋|中国高清论坛 ( 黔ICP备16007815号-1 )

GMT+8, 2018-12-16 04:58 , Processed in 0.087291 second(s), 30 queries .

Powered by Discuz! X3.4

© 2001-2017 Comsenz Inc.

快速回复 返回顶部 返回列表