请选择 进入手机版 | 继续访问电脑版

中国高清论坛

 找回密码
 立即注册
111
搜索
查看: 8414|回复: 1125

[动作片] 月球陷阱:地球危机/月球战场2 Moontrap.Target.Earth.2017.1080p.BluRay.x264-GUACAMOLE 6.56 GiB

  [复制链接]

区域版主

高清币
13869
金钱
32613
鲜花
-88
在线时间
10596 小时
最后登录
2018-12-16
发表于 2018-6-6 23:35:28 | 显示全部楼层 |阅读模式
本帖最后由 jinggangshi 于 2018-6-7 00:03 编辑

p2271918616.jpg


◎译  名 月球陷阱:地球危机/月球战场2
◎片  名 Moontrap: Target Earth
◎年  代 2017
◎国  家 美国
◎类  别 动作/冒险/科幻
◎语  言 英语
◎字  幕 N/A
◎IMDb评分 5.2/10 from 3,689 users
◎IMDB链接 http://www.imdb.com/title/tt3705822/
◎文件格式 x264 + DTS
◎视频尺寸 1920x816
◎文件大小 6.56 GiB
◎片  长 1h 25mn
◎导  演 Richard Van Dyke
◎主  演 莎拉·巴特勒 Sarah Butler
       查尔斯·肖内西 Charles Shaughnessy
       Damon Dayoub
       Niki Spiridakos


◎简  介

  讲述了地球上发现的一艘被遗忘的古飞船。侦查员将她运送到月球上,她遇到了令人印象深刻的机器,保存着那消失了很久的文明的智慧。
  1. Video
  2. ID                                       : 1
  3. Format                                   : AVC
  4. Format/Info                              : Advanced Video Codec
  5. Format profile                           : High@L4.1
  6. Format settings, CABAC                   : Yes
  7. Format settings, ReFrames                : 5 frames
  8. Codec ID                                 : V_MPEG4/ISO/AVC
  9. Duration                                 : 1h 25mn
  10. Bit rate                                 : 9 479 Kbps
  11. Width                                    : 1 920 pixels
  12. Height                                   : 816 pixels
  13. Display aspect ratio                     : 2.35:1
  14. Frame rate mode                          : Constant
  15. Frame rate                               : 23.976 (24000/1001) fps
  16. Color space                              : YUV
  17. Chroma subsampling                       : 4:2:0
  18. Bit depth                                : 8 bits
  19. Scan type                                : Progressive
  20. Bits/(Pixel*Frame)                       : 0.252
  21. Stream size                              : 5.65 GiB (86%)
  22. Writing library                          : x264 core 150 r2833 df79067
  23. Encoding settings                        : cabac=1 / ref=5 / deblock=1:0:0 / analyse=0x3:0x113 / me=umh / subme=8 / psy=1 / psy_rd=1.00:0.00 / mixed_ref=1 / me_range=16 / chroma_me=1 / trellis=2 / 8x8dct=1 / cqm=0 / deadzone=21,11 / fast_pskip=0 / chroma_qp_offset=-2 / threads=12 / lookahead_threads=2 / sliced_threads=0 / nr=0 / decimate=1 / interlaced=0 / bluray_compat=0 / constrained_intra=0 / bframes=3 / b_pyramid=2 / b_adapt=1 / b_bias=0 / direct=1 / weightb=1 / open_gop=0 / weightp=2 / keyint=250 / keyint_min=23 / scenecut=40 / intra_refresh=0 / rc_lookahead=50 / rc=2pass / mbtree=1 / bitrate=9479 / ratetol=1.0 / qcomp=0.60 / qpmin=0 / qpmax=69 / qpstep=4 / cplxblur=20.0 / qblur=0.5 / ip_ratio=1.40 / aq=1:1.00
  24. Default                                  : Yes
  25. Forced                                   : No

  26. Audio
  27. ID                                       : 2
  28. Format                                   : DTS
  29. Format/Info                              : Digital Theater Systems
  30. Mode                                     : 16
  31. Format settings, Endianness              : Big
  32. Codec ID                                 : A_DTS
  33. Duration                                 : 1h 25mn
  34. Bit rate mode                            : Constant
  35. Bit rate                                 : 1 509 Kbps
  36. Channel(s)                               : 6 channels
  37. Channel positions                        : Front: L C R, Side: L R, LFE
  38. Sampling rate                            : 48.0 KHz
  39. Frame rate                               : 93.750 fps (512 spf)
  40. Bit depth                                : 24 bits
  41. Compression mode                         : Lossy
  42. Stream size                              : 922 MiB (14%)
  43. Language                                 : English
  44. Default                                  : Yes
  45. Forced                                   : No
复制代码
Screenshots:

游客,如果您要查看本帖隐藏内容请回复

回复

使用道具 举报

影坛巨星

高清币
3031
金钱
6371
鲜花
0
在线时间
3417 小时
最后登录
2018-12-15
发表于 2018-6-6 23:36:23 | 显示全部楼层
Thanks for sharing
回复 支持 反对

使用道具 举报

superstar

高清币
2638
金钱
10331
鲜花
0
在线时间
3291 小时
最后登录
2018-12-16
发表于 2018-6-6 23:37:11 | 显示全部楼层
感谢楼主分享精彩电影!
回复 支持 反对

使用道具 举报

永恒神话

高清币
7013
金钱
26592
鲜花
0
在线时间
1656 小时
最后登录
2018-12-16
发表于 2018-6-6 23:38:12 | 显示全部楼层
感谢分享精彩好电影!!!
回复 支持 反对

使用道具 举报

人气偶像

高清币
48
金钱
1990
鲜花
0
在线时间
450 小时
最后登录
2018-12-14
发表于 2018-6-6 23:40:44 | 显示全部楼层
感谢楼主分享精彩电影!
回复 支持 反对

使用道具 举报

金鸡奖主角

高清币
419
金钱
4729
鲜花
0
在线时间
1112 小时
最后登录
2018-12-16
发表于 2018-6-6 23:41:06 | 显示全部楼层
中国高清论坛很棒!
回复 支持 反对

使用道具 举报

好莱坞明星

高清币
669
金钱
6222
鲜花
0
在线时间
2483 小时
最后登录
2018-12-15
发表于 2018-6-6 23:43:27 | 显示全部楼层
楼主分享的高清电影太好了!
回复 支持 反对

使用道具 举报

天王巨星

高清币
80
金钱
2355
鲜花
0
在线时间
270 小时
最后登录
2018-12-15
发表于 2018-6-6 23:43:37 | 显示全部楼层
每天都来中国高清论坛看看有什么电影!
回复 支持 反对

使用道具 举报

超级明星

高清币
271
金钱
7238
鲜花
0
在线时间
2081 小时
最后登录
2018-12-14
发表于 2018-6-6 23:46:49 | 显示全部楼层
每天都来中国高清论坛看看有什么电影!
回复 支持 反对

使用道具 举报

永恒神话

高清币
5488
金钱
12621
鲜花
0
在线时间
2051 小时
最后登录
2018-12-15
发表于 2018-6-6 23:52:37 | 显示全部楼层
每天都来中国高清论坛看看有什么电影!
回复 支持 反对

使用道具 举报

懒得打字嘛,点击右侧快捷回复 【右侧内容,后台自定义】
您需要登录后才可以回帖 登录 | 立即注册

本版积分规则

QQ|手机版|小黑屋|中国高清论坛 ( 黔ICP备16007815号-1 )

GMT+8, 2018-12-16 04:29 , Processed in 0.089269 second(s), 30 queries .

Powered by Discuz! X3.4

© 2001-2017 Comsenz Inc.

快速回复 返回顶部 返回列表