请选择 进入手机版 | 继续访问电脑版

中国高清论坛

 找回密码
 立即注册
111
搜索
查看: 3818|回复: 638

[动作片] 环太平洋:雷霆再起/环太平洋2/环太平洋2:雷霆再起/环太平洋2:崛起/环太平洋2:漩涡/环太平洋2:起义时刻(台)/悍战太平洋2:起义时空(港)Pacific

  [复制链接]

超级版主

高清币
975450
金钱
31061
鲜花
2
在线时间
4149 小时
最后登录
2018-12-16
发表于 2018-6-7 18:05:16 | 显示全部楼层 |阅读模式
本帖最后由 ccbby 于 2018-6-7 18:19 编辑



◎译  名 环太平洋:雷霆再起/环太平洋2/环太平洋2:雷霆再起/环太平洋2:崛起/环太平洋2:漩涡/环太平洋2:起义时刻(台)/悍战太平洋2:起义时空(港)
◎片  名 Pacific Rim: Uprising
◎年  代 2018
◎国  家 美国/中国
◎类  别 动作/科幻/冒险
◎IMDb评分 6.0/10 from 26,058 users
◎IMDB链接 http://www.imdb.com/title/tt2557478
◎片  长 1 h 50 min
◎导  演 斯蒂文·S·迪奈特 Steven S. DeKnight
◎主  演 约翰·博耶加 John Boyega
      斯科特·伊斯特伍德 Scott Eastwood
      卡莉·史派妮 Cailee Spaeny
      景甜 Tian Jing
      查理·戴 Charlie Day
      伯恩·戈曼 Burn Gorman
      张晋 Max Zhang
      亚德里亚·霍纳 Adria Arjona
      菊地凛子 Rinko Kikuchi
      卡兰·布拉尔 Karan Brar
      黄恺杰 Wesley Wong
      伊万娜·萨赫诺 Ivanna Sakhno
      新田真剑佑 Mackenyu
      吉丽 Lily Ji
      雪莉·罗德里格斯 Shyrley Rodriguez
      拉哈特·亚当斯 Rahart Adams
      列维·米登 Levi Meaden
      达斯汀·克莱尔 Dustin Clare
      陈梓童 Queen T
      于小伟 Xiaowei Yu
      钱泳辰 Yongchen Qian
      郭家铭 Jiaming Guo
      蓝盈莹 Lyric Lan
      金桢勋 Jeong-Hoon Kim
      菊池润美 Rumi Kikuchi
      丹尼尔·弗雷里格尔 Daniel Feuerriegel
      齐柏林·汉密尔顿 Zeppelin Hamilton
      尼克·塔拉贝 Nick E. Tarabay
      布里德基·萨蒂纳 Bridger Zadina
      小蒂姆·约翰逊 Tim Johnson Jr.
      玛德琳·麦格劳 Madeleine McGraw
      乔什·斯坦伯 Josh Stamberg
      斯蒂芬妮·阿琳 Stephanie Allynne
      卢克·朱迪 Luke Judy

◎简  介

  故事发生在距离前作战乱结束十年之后的2035年。随着科技的进步,机甲更新换代,拥有了更先进的功能和更强劲的战斗力。但外星“先驱”仍对地球蠢蠢欲动,当海底虫洞再次被打开,进化而来的怪兽更加庞大且智慧,它们似乎酝酿着更具威胁追高清的阴谋,地球再次陷入被巨兽侵袭的危机。面对机甲驾驶员的短缺,杰克(约翰·波耶加 饰)与奈特(斯科特·伊斯特伍德 饰)这对曾经的机甲驾驶员搭档再次联手,不得不冒险率领从未有过实战经验的机甲学员们奋起抵抗,为守护住人类最后的希望与怪兽展开硬碰硬的激烈一战。
  1. Video
  2. ID                                       : 1
  3. Format                                   : AVC
  4. Format/Info                              : Advanced Video Codec
  5. Format profile                           : High@L4.1
  6. Format settings                          : CABAC / 5 Ref Frames
  7. Format settings, CABAC                   : Yes
  8. Format settings, ReFrames                : 5 frames
  9. Codec ID                                 : V_MPEG4/ISO/AVC
  10. Duration                                 : 1 h 50 min
  11. Bit rate                                 : 9 255 kb/s
  12. Width                                    : 1 920 pixels
  13. Height                                   : 800 pixels
  14. Display aspect ratio                     : 2.40:1
  15. Frame rate mode                          : Constant
  16. Frame rate                               : 23.976 FPS
  17. Color space                              : YUV
  18. Chroma subsampling                       : 4:2:0
  19. Bit depth                                : 8 bits
  20. Scan type                                : Progressive
  21. Bits/(Pixel*Frame)                       : 0.251
  22. Stream size                              : 7.15 GiB (70%)
  23. Title                                    : Pacific.Rim.Uprising.2018.1080p.BluRay.x264.DTS-HD.MA.7.1-FGT
  24. Writing library                          : x264 core 155 r2901 7d0ff22
  25. Encoding settings                        : cabac=1 / ref=5 / deblock=1:0:0 / analyse=0x3:0x133 / me=umh / subme=7 / psy=1 / psy_rd=1.00:0.00 / mixed_ref=1 / me_range=16 / chroma_me=1 / trellis=1 / 8x8dct=1 / cqm=0 / deadzone=21,11 / fast_pskip=0 / chroma_qp_offset=-2 / threads=25 / lookahead_threads=4 / sliced_threads=0 / nr=0 / decimate=1 / interlaced=0 / bluray_compat=0 / constrained_intra=0 / bframes=3 / b_pyramid=2 / b_adapt=1 / b_bias=0 / direct=1 / weightb=1 / open_gop=0 / weightp=2 / keyint=250 / keyint_min=23 / scenecut=40 / intra_refresh=0 / rc_lookahead=40 / rc=2pass / mbtree=1 / bitrate=9255 / ratetol=1.0 / qcomp=0.60 / qpmin=0 / qpmax=69 / qpstep=4 / cplxblur=20.0 / qblur=0.5 / ip_ratio=1.40 / aq=1:1.00
  26. Language                                 : English
  27. Default                                  : Yes
  28. Forced                                   : No

  29. Audio
  30. ID                                       : 2
  31. Format                                   : DTS
  32. Format/Info                              : Digital Theater Systems
  33. Format profile                           : MA / Core
  34. Codec ID                                 : A_DTS
  35. Duration                                 : 1 h 50 min
  36. Bit rate mode                            : Variable / Constant
  37. Bit rate                                 : 4 039 kb/s / 1 509 kb/s
  38. Channel(s)                               : 8 channels / 6 channels
  39. Channel positions                        : Front: L C R, Side: L R, Back: L R, LFE / Front: L C R, Side: L R, LFE
  40. Sampling rate                            : 48.0 kHz
  41. Frame rate                               : 93.750 FPS (512 SPF)
  42. Bit depth                                : 24 bits
  43. Compression mode                         : Lossless / Lossy
  44. Stream size                              : 3.12 GiB (30%)
  45. Title                                    : Pacific.Rim.Uprising.2018.1080p.BluRay.x264.DTS-HD.MA.7.1-FGT
  46. Language                                 : English
  47. Default                                  : Yes
  48. Forced                                   : No

  49. Text
  50. ID                                       : 3
  51. Format                                   : UTF-8
  52. Codec ID                                 : S_TEXT/UTF8
  53. Codec ID/Info                            : UTF-8 Plain Text
  54. Duration                                 : 1 h 40 min
  55. Bit rate                                 : 65 b/s
  56. Count of elements                        : 1600
  57. Stream size                              : 48.4 KiB (0%)
  58. Title                                    : English-SRT
  59. Language                                 : English
  60. Default                                  : Yes
  61. Forced                                   : No

  62. Menu
  63. 00:00:00.000                             : en:00:00:00.000
  64. 00:06:54.873                             : en:00:06:54.873
  65. 00:13:05.368                             : en:00:13:05.368
  66. 00:15:51.075                             : en:00:15:51.075
  67. 00:20:36.360                             : en:00:20:36.360
  68. 00:24:49.697                             : en:00:24:49.697
  69. 00:31:08.241                             : en:00:31:08.241
  70. 00:37:56.065                             : en:00:37:56.065
  71. 00:43:37.949                             : en:00:43:37.949
  72. 00:49:01.939                             : en:00:49:01.939
  73. 00:53:40.926                             : en:00:53:40.926
  74. 00:58:12.030                             : en:00:58:12.030
  75. 01:04:45.006                             : en:01:04:45.006
  76. 01:09:25.536                             : en:01:09:25.536
  77. 01:14:36.722                             : en:01:14:36.722
  78. 01:22:53.427                             : en:01:22:53.427
  79. 01:29:02.546                             : en:01:29:02.546
  80. 01:33:10.585                             : en:01:33:10.585
  81. 01:38:07.381                             : en:01:38:07.381
  82. 01:40:55.049                             : en:01:40:55.049
复制代码







游客,如果您要查看本帖隐藏内容请回复

回复

使用道具 举报

人气偶像

高清币
9
金钱
2395
鲜花
0
在线时间
884 小时
最后登录
2018-12-15
发表于 2018-6-7 18:10:48 | 显示全部楼层
很好,很强大
回复 支持 反对

使用道具 举报

金鸡奖主角

高清币
445
金钱
3739
鲜花
0
在线时间
1111 小时
最后登录
2018-12-15
发表于 2018-6-7 18:11:06 | 显示全部楼层
每天都来中国高清论坛看看有什么电影!
回复 支持 反对

使用道具 举报

VIP贵宾

高清币
1818
金钱
5462
鲜花
0
在线时间
1337 小时
最后登录
2018-12-15
发表于 2018-6-7 18:11:47 | 显示全部楼层
感谢楼主的无私分享!
回复 支持 反对

使用道具 举报

天王巨星

高清币
136
金钱
2819
鲜花
0
在线时间
743 小时
最后登录
2018-12-15
发表于 2018-6-7 18:12:24 | 显示全部楼层
中国高清论坛很棒!
回复 支持 反对

使用道具 举报

好莱坞明星

高清币
0
金钱
7175
鲜花
0
在线时间
1490 小时
最后登录
2018-12-15
发表于 2018-6-7 18:12:36 | 显示全部楼层
谢谢分享!!
回复 支持 反对

使用道具 举报

金鸡奖主角

高清币
66
金钱
4480
鲜花
0
在线时间
447 小时
最后登录
2018-12-14
发表于 2018-6-7 18:15:54 | 显示全部楼层
环太平洋:雷霆再起
回复 支持 反对

使用道具 举报

金鸡奖主角

高清币
17
金钱
6681
鲜花
0
在线时间
4586 小时
最后登录
2018-12-15
发表于 2018-6-7 18:20:31 | 显示全部楼层
楼主分享的高清电影太好了!
回复 支持 反对

使用道具 举报

金鸡奖主角

高清币
66
金钱
4480
鲜花
0
在线时间
447 小时
最后登录
2018-12-14
发表于 2018-6-7 18:22:46 | 显示全部楼层
环太平洋:雷霆再起
回复 支持 反对

使用道具 举报

金鸡奖主角

高清币
66
金钱
4480
鲜花
0
在线时间
447 小时
最后登录
2018-12-14
发表于 2018-6-7 18:23:05 | 显示全部楼层
环太平洋:雷霆再起
回复 支持 反对

使用道具 举报

懒得打字嘛,点击右侧快捷回复 【右侧内容,后台自定义】
您需要登录后才可以回帖 登录 | 立即注册

本版积分规则

QQ|手机版|小黑屋|中国高清论坛 ( 黔ICP备16007815号-1 )

GMT+8, 2018-12-16 04:29 , Processed in 0.096167 second(s), 30 queries .

Powered by Discuz! X3.4

© 2001-2017 Comsenz Inc.

快速回复 返回顶部 返回列表