请选择 进入手机版 | 继续访问电脑版

中国高清论坛

 找回密码
 立即注册
111
搜索
查看: 9640|回复: 1478

[动作片] 超感猎杀:完结特别篇/超感八人组剧场版/超感8人组[2小时加长版] [内封官方中英字幕] Sense8.S00E02.Amor.Vincit.Omnia.108

  [复制链接]

超级版主

高清币
975456
金钱
31061
鲜花
2
在线时间
4149 小时
最后登录
2018-12-16
发表于 2018-6-8 16:45:48 | 显示全部楼层 |阅读模式


p2520264840.jpg


超感猎杀:完结特别篇 Sense8 Finale Special (2018)


导演: 拉娜·沃卓斯基 / 莉莉·沃卓斯基
编剧: 莉莉·沃卓斯基 / 拉娜·沃卓斯基 / J·迈克尔·斯特拉辛斯基
主演: 裴斗娜 / 杰米·克莱顿 / 蒂娜·德赛 / 塔彭丝·米德尔顿 / 马克思·雷迈特 /
类型: 剧情 / 动作 / 科幻 / 同性
制片国家/地区: 美国
语言: 英语
上映日期: 2018-06-08(美国)
片长: 120分钟
又名: 超感八人组/超感8人组
IMDb链接: tt7083044
豆瓣评分 9.7

超感猎杀:完结特别篇的剧情简介 · · · · · ·

  Netfilx宣布将为月初被砍的《超感猎杀》制作两小时最终篇!Wolfgang的命运及更多大坑终于要填上啦!剧集制作人拉娜·沃卓斯基在致Sense8家族的一封信中感谢全球粉丝,表示大结局正在制作中,将于明年上线!
  1. ideo
  2. ID                                       : 1
  3. Format                                   : AVC
  4. Format/Info                              : Advanced Video Codec
  5. Format profile                           : Main@L4
  6. Format settings                          : CABAC / 3 Ref Frames
  7. Format settings, CABAC                   : Yes
  8. Format settings, RefFrames               : 3 frames
  9. Codec ID                                 : V_MPEG4/ISO/AVC
  10. Duration                                 : 2 h 31 min
  11. Bit rate mode                            : Variable
  12. Bit rate                                 : 6 490 kb/s
  13. Maximum bit rate                         : 9 735 kb/s
  14. Width                                    : 1 920 pixels
  15. Height                                   : 1 080 pixels
  16. Display aspect ratio                     : 16:9
  17. Frame rate mode                          : Constant
  18. Frame rate                               : 23.976 (24000/1001) FPS
  19. Color space                              : YUV
  20. Chroma subsampling                       : 4:2:0
  21. Bit depth                                : 8 bits
  22. Scan type                                : Progressive
  23. Bits/(Pixel*Frame)                       : 0.131
  24. Stream size                              : 6.84 GiB (94%)
  25. Writing library                          : x264 core 148 r2715 7e75228
  26. Encoding settings                        : cabac=1 / ref=3 / deblock=1:0:0 / analyse=0x1:0x111 / me=umh / subme=10 / psy=1 / psy_rd=1.00:0.00 / mixed_ref=1 / me_range=24 / chroma_me=1 / trellis=2 / 8x8dct=0 / cqm=0 / deadzone=21,11 / fast_pskip=1 / chroma_qp_offset=-2 / threads=8 / lookahead_threads=1 / sliced_threads=0 / nr=0 / decimate=1 / interlaced=0 / bluray_compat=0 / stitchable=1 / constrained_intra=0 / bframes=2 / b_pyramid=0 / b_adapt=2 / b_bias=0 / direct=3 / weightb=1 / open_gop=0 / weightp=2 / keyint=48 / keyint_min=25 / scenecut=0 / intra_refresh=0 / rc_lookahead=48 / rc=2pass / mbtree=1 / bitrate=6490 / ratetol=1.0 / qcomp=0.50 / qpmin=6 / qpmax=51 / qpstep=4 / cplxblur=20.0 / qblur=0.5 / vbv_maxrate=9735 / vbv_bufsize=12980 / nal_hrd=vbr / filler=0 / ip_ratio=1.40 / aq=1:1.00
  27. Default                                  : Yes
  28. Forced                                   : No

  29. Audio
  30. ID                                       : 2
  31. Format                                   : AC-3
  32. Format/Info                              : Audio Coding 3
  33. Format settings, Endianness              : Big
  34. Codec ID                                 : A_AC3
  35. Duration                                 : 2 h 31 min
  36. Bit rate mode                            : Constant
  37. Bit rate                                 : 384 kb/s
  38. Channel(s)                               : 6 channels
  39. Channel positions                        : Front: L C R, Side: L R, LFE
  40. Sampling rate                            : 48.0 kHz
  41. Frame rate                               : 31.250 FPS (1536 SPF)
  42. Bit depth                                : 16 bits
  43. Compression mode                         : Lossy
  44. Stream size                              : 417 MiB (6%)
  45. Title                                    : English
  46. Language                                 : English
  47. Service kind                             : Complete Main
  48. Default                                  : Yes
  49. Forced                                   : No

  50. Text #1
  51. ID                                       : 3
  52. Format                                   : UTF-8
  53. Codec ID                                 : S_TEXT/UTF8
  54. Codec ID/Info                            : UTF-8 Plain Text
  55. Duration                                 : 1 h 56 min
  56. Bit rate                                 : 1 b/s
  57. Count of elements                        : 39
  58. Stream size                              : 1.02 KiB (0%)
  59. Title                                    : Forced
  60. Language                                 : English
  61. Default                                  : Yes
  62. Forced                                   : Yes

  63. Text #2
  64. ID                                       : 4
  65. Format                                   : UTF-8
  66. Codec ID                                 : S_TEXT/UTF8
  67. Codec ID/Info                            : UTF-8 Plain Text
  68. Duration                                 : 2 h 30 min
  69. Bit rate                                 : 53 b/s
  70. Count of elements                        : 1932
  71. Stream size                              : 59.1 KiB (0%)
  72. Title                                    : SDH
  73. Language                                 : English
  74. Default                                  : No
  75. Forced                                   : No

  76. Text #3
  77. ID                                       : 5
  78. Format                                   : UTF-8
  79. Codec ID                                 : S_TEXT/UTF8
  80. Codec ID/Info                            : UTF-8 Plain Text
  81. Duration                                 : 2 h 26 min
  82. Bit rate                                 : 81 b/s
  83. Count of elements                        : 1671
  84. Stream size                              : 87.2 KiB (0%)
  85. Language                                 : Arabic
  86. Default                                  : No
  87. Forced                                   : No

  88. Text #4
  89. ID                                       : 6
  90. Format                                   : UTF-8
  91. Codec ID                                 : S_TEXT/UTF8
  92. Codec ID/Info                            : UTF-8 Plain Text
  93. Duration                                 : 2 h 25 min
  94. Bit rate                                 : 66 b/s
  95. Count of elements                        : 1298
  96. Stream size                              : 71.0 KiB (0%)
  97. Language                                 : Bulgarian
  98. Default                                  : No
  99. Forced                                   : No

  100. Text #5
  101. ID                                       : 7
  102. Format                                   : UTF-8
  103. Codec ID                                 : S_TEXT/UTF8
  104. Codec ID/Info                            : UTF-8 Plain Text
  105. Duration                                 : 2 h 26 min
  106. Bit rate                                 : 45 b/s
  107. Count of elements                        : 1667
  108. Stream size                              : 48.8 KiB (0%)
  109. Language                                 : Danish
  110. Default                                  : No
  111. Forced                                   : No

  112. Text #6
  113. ID                                       : 8
  114. Format                                   : UTF-8
  115. Codec ID                                 : S_TEXT/UTF8
  116. Codec ID/Info                            : UTF-8 Plain Text
  117. Duration                                 : 2 h 26 min
  118. Bit rate                                 : 46 b/s
  119. Count of elements                        : 1612
  120. Stream size                              : 50.2 KiB (0%)
  121. Language                                 : German
  122. Default                                  : No
  123. Forced                                   : No

  124. Text #7
  125. ID                                       : 9
  126. Format                                   : UTF-8
  127. Codec ID                                 : S_TEXT/UTF8
  128. Codec ID/Info                            : UTF-8 Plain Text
  129. Duration                                 : 2 h 26 min
  130. Bit rate                                 : 80 b/s
  131. Count of elements                        : 1650
  132. Stream size                              : 86.6 KiB (0%)
  133. Language                                 : Greek
  134. Default                                  : No
  135. Forced                                   : No

  136. Text #8
  137. ID                                       : 10
  138. Format                                   : UTF-8
  139. Codec ID                                 : S_TEXT/UTF8
  140. Codec ID/Info                            : UTF-8 Plain Text
  141. Duration                                 : 2 h 26 min
  142. Bit rate                                 : 41 b/s
  143. Count of elements                        : 1669
  144. Stream size                              : 44.1 KiB (0%)
  145. Language                                 : Spanish
  146. Default                                  : No
  147. Forced                                   : No

  148. Text #9
  149. ID                                       : 11
  150. Format                                   : UTF-8
  151. Codec ID                                 : S_TEXT/UTF8
  152. Codec ID/Info                            : UTF-8 Plain Text
  153. Duration                                 : 2 h 26 min
  154. Bit rate                                 : 45 b/s
  155. Count of elements                        : 1664
  156. Stream size                              : 49.1 KiB (0%)
  157. Title                                    : European
  158. Language                                 : Spanish
  159. Default                                  : No
  160. Forced                                   : No

  161. Text #10
  162. ID                                       : 12
  163. Format                                   : UTF-8
  164. Codec ID                                 : S_TEXT/UTF8
  165. Codec ID/Info                            : UTF-8 Plain Text
  166. Duration                                 : 2 h 26 min
  167. Bit rate                                 : 40 b/s
  168. Count of elements                        : 1648
  169. Stream size                              : 43.8 KiB (0%)
  170. Language                                 : Finnish
  171. Default                                  : No
  172. Forced                                   : No

  173. Text #11
  174. ID                                       : 13
  175. Format                                   : UTF-8
  176. Codec ID                                 : S_TEXT/UTF8
  177. Codec ID/Info                            : UTF-8 Plain Text
  178. Duration                                 : 2 h 26 min
  179. Bit rate                                 : 45 b/s
  180. Count of elements                        : 1614
  181. Stream size                              : 49.0 KiB (0%)
  182. Language                                 : French
  183. Default                                  : No
  184. Forced                                   : No

  185. Text #12
  186. ID                                       : 14
  187. Format                                   : UTF-8
  188. Codec ID                                 : S_TEXT/UTF8
  189. Codec ID/Info                            : UTF-8 Plain Text
  190. Duration                                 : 2 h 26 min
  191. Bit rate                                 : 69 b/s
  192. Count of elements                        : 1667
  193. Stream size                              : 74.6 KiB (0%)
  194. Language                                 : Hebrew
  195. Default                                  : No
  196. Forced                                   : No

  197. Text #13
  198. ID                                       : 15
  199. Format                                   : UTF-8
  200. Codec ID                                 : S_TEXT/UTF8
  201. Codec ID/Info                            : UTF-8 Plain Text
  202. Duration                                 : 2 h 26 min
  203. Bit rate                                 : 43 b/s
  204. Count of elements                        : 1634
  205. Stream size                              : 47.1 KiB (0%)
  206. Language                                 : Italian
  207. Default                                  : No
  208. Forced                                   : No

  209. Text #14
  210. ID                                       : 16
  211. Format                                   : UTF-8
  212. Codec ID                                 : S_TEXT/UTF8
  213. Codec ID/Info                            : UTF-8 Plain Text
  214. Duration                                 : 2 h 26 min
  215. Bit rate                                 : 41 b/s
  216. Count of elements                        : 1645
  217. Stream size                              : 44.1 KiB (0%)
  218. Language                                 : Japanese
  219. Default                                  : No
  220. Forced                                   : No

  221. Text #15
  222. ID                                       : 17
  223. Format                                   : UTF-8
  224. Codec ID                                 : S_TEXT/UTF8
  225. Codec ID/Info                            : UTF-8 Plain Text
  226. Duration                                 : 2 h 26 min
  227. Bit rate                                 : 51 b/s
  228. Count of elements                        : 1674
  229. Stream size                              : 55.9 KiB (0%)
  230. Language                                 : Korean
  231. Default                                  : No
  232. Forced                                   : No

  233. Text #16
  234. ID                                       : 18
  235. Format                                   : UTF-8
  236. Codec ID                                 : S_TEXT/UTF8
  237. Codec ID/Info                            : UTF-8 Plain Text
  238. Duration                                 : 2 h 26 min
  239. Bit rate                                 : 42 b/s
  240. Count of elements                        : 1625
  241. Stream size                              : 46.0 KiB (0%)
  242. Language                                 : Norwegian Bokmal
  243. Default                                  : No
  244. Forced                                   : No

  245. Text #17
  246. ID                                       : 19
  247. Format                                   : UTF-8
  248. Codec ID                                 : S_TEXT/UTF8
  249. Codec ID/Info                            : UTF-8 Plain Text
  250. Duration                                 : 2 h 26 min
  251. Bit rate                                 : 41 b/s
  252. Count of elements                        : 1363
  253. Stream size                              : 44.7 KiB (0%)
  254. Language                                 : Dutch
  255. Default                                  : No
  256. Forced                                   : No

  257. Text #18
  258. ID                                       : 20
  259. Format                                   : UTF-8
  260. Codec ID                                 : S_TEXT/UTF8
  261. Codec ID/Info                            : UTF-8 Plain Text
  262. Duration                                 : 2 h 26 min
  263. Bit rate                                 : 39 b/s
  264. Count of elements                        : 1609
  265. Stream size                              : 42.6 KiB (0%)
  266. Language                                 : Polish
  267. Default                                  : No
  268. Forced                                   : No

  269. Text #19
  270. ID                                       : 21
  271. Format                                   : UTF-8
  272. Codec ID                                 : S_TEXT/UTF8
  273. Codec ID/Info                            : UTF-8 Plain Text
  274. Duration                                 : 2 h 26 min
  275. Bit rate                                 : 45 b/s
  276. Count of elements                        : 1600
  277. Stream size                              : 49.0 KiB (0%)
  278. Language                                 : Portuguese
  279. Default                                  : No
  280. Forced                                   : No

  281. Text #20
  282. ID                                       : 22
  283. Format                                   : UTF-8
  284. Codec ID                                 : S_TEXT/UTF8
  285. Codec ID/Info                            : UTF-8 Plain Text
  286. Duration                                 : 2 h 26 min
  287. Bit rate                                 : 47 b/s
  288. Count of elements                        : 1657
  289. Stream size                              : 50.5 KiB (0%)
  290. Title                                    : Brazilian
  291. Language                                 : Portuguese
  292. Default                                  : No
  293. Forced                                   : No

  294. Text #21
  295. ID                                       : 23
  296. Format                                   : UTF-8
  297. Codec ID                                 : S_TEXT/UTF8
  298. Codec ID/Info                            : UTF-8 Plain Text
  299. Duration                                 : 2 h 26 min
  300. Bit rate                                 : 45 b/s
  301. Count of elements                        : 1660
  302. Stream size                              : 49.2 KiB (0%)
  303. Language                                 : Romanian
  304. Default                                  : No
  305. Forced                                   : No

  306. Text #22
  307. ID                                       : 24
  308. Format                                   : UTF-8
  309. Codec ID                                 : S_TEXT/UTF8
  310. Codec ID/Info                            : UTF-8 Plain Text
  311. Duration                                 : 2 h 26 min
  312. Bit rate                                 : 44 b/s
  313. Count of elements                        : 1503
  314. Stream size                              : 48.0 KiB (0%)
  315. Language                                 : Swedish
  316. Default                                  : No
  317. Forced                                   : No

  318. Text #23
  319. ID                                       : 25
  320. Format                                   : UTF-8
  321. Codec ID                                 : S_TEXT/UTF8
  322. Codec ID/Info                            : UTF-8 Plain Text
  323. Duration                                 : 2 h 26 min
  324. Bit rate                                 : 114 b/s
  325. Count of elements                        : 1680
  326. Stream size                              : 123 KiB (0%)
  327. Language                                 : Thai
  328. Default                                  : No
  329. Forced                                   : No

  330. Text #24
  331. ID                                       : 26
  332. Format                                   : UTF-8
  333. Codec ID                                 : S_TEXT/UTF8
  334. Codec ID/Info                            : UTF-8 Plain Text
  335. Duration                                 : 2 h 26 min
  336. Bit rate                                 : 48 b/s
  337. Count of elements                        : 1649
  338. Stream size                              : 51.8 KiB (0%)
  339. Language                                 : Turkish
  340. Default                                  : No
  341. Forced                                   : No

  342. Text #25
  343. ID                                       : 27
  344. Format                                   : UTF-8
  345. Codec ID                                 : S_TEXT/UTF8
  346. Codec ID/Info                            : UTF-8 Plain Text
  347. Duration                                 : 2 h 26 min
  348. Bit rate                                 : 61 b/s
  349. Count of elements                        : 1669
  350. Stream size                              : 66.5 KiB (0%)
  351. Language                                 : Vietnamese
  352. Default                                  : No
  353. Forced                                   : No

  354. Text #26
  355. ID                                       : 28
  356. Format                                   : UTF-8
  357. Codec ID                                 : S_TEXT/UTF8
  358. Codec ID/Info                            : UTF-8 Plain Text
  359. Duration                                 : 2 h 26 min
  360. Bit rate                                 : 44 b/s
  361. Count of elements                        : 1669
  362. Stream size                              : 48.0 KiB (0%)
  363. Title                                    : Simplified
  364. Language                                 : Chinese
  365. Default                                  : No
  366. Forced                                   : No

  367. Text #27
  368. ID                                       : 29
  369. Format                                   : UTF-8
  370. Codec ID                                 : S_TEXT/UTF8
  371. Codec ID/Info                            : UTF-8 Plain Text
  372. Duration                                 : 2 h 26 min
  373. Bit rate                                 : 45 b/s
  374. Count of elements                        : 1670
  375. Stream size                              : 49.4 KiB (0%)
  376. Title                                    : Traditional
  377. Language                                 : Chinese
  378. Default                                  : No
  379. Forced                                   : No
复制代码


游客,如果您要查看本帖隐藏内容请回复


回复

使用道具 举报

人气偶像

高清币
22
金钱
1682
鲜花
0
在线时间
239 小时
最后登录
2018-12-13
发表于 2018-6-8 16:47:28 | 显示全部楼层
感谢楼主的无私分享!
回复 支持 反对

使用道具 举报

知名艺人

高清币
5
金钱
511
鲜花
0
在线时间
120 小时
最后登录
2018-12-16
发表于 2018-6-8 16:48:02 | 显示全部楼层
没有看过,支持一下
回复 支持 反对

使用道具 举报

金鸡奖主角

高清币
197
金钱
5442
鲜花
0
在线时间
616 小时
最后登录
2018-12-14
发表于 2018-6-8 16:48:14 | 显示全部楼层
感谢楼主分享精彩电影!
回复 支持 反对

使用道具 举报

superstar

高清币
3951
金钱
9296
鲜花
0
在线时间
641 小时
最后登录
2018-12-15
发表于 2018-6-8 16:50:11 | 显示全部楼层
感谢楼主分享精彩电影!
回复 支持 反对

使用道具 举报

superstar

高清币
2638
金钱
10331
鲜花
0
在线时间
3291 小时
最后登录
2018-12-16
发表于 2018-6-8 16:50:47 | 显示全部楼层
感谢楼主分享精彩电影!
回复 支持 反对

使用道具 举报

金鸡奖主角

高清币
291
金钱
4474
鲜花
0
在线时间
729 小时
最后登录
2018-12-15
发表于 2018-6-8 16:51:59 | 显示全部楼层
每天都来中国高清论坛看看有什么电影!
回复 支持 反对

使用道具 举报

人气偶像

高清币
77
金钱
1349
鲜花
0
在线时间
255 小时
最后登录
2018-12-10
发表于 2018-6-8 16:52:09 | 显示全部楼层
感谢楼主分享精彩电影!
回复 支持 反对

使用道具 举报

金鸡奖主角

高清币
622
金钱
2971
鲜花
0
在线时间
264 小时
最后登录
2018-12-14
发表于 2018-6-8 16:52:35 | 显示全部楼层
每天都来中国高清论坛看看有什么电影!
回复 支持 反对

使用道具 举报

永恒神话

高清币
5818
金钱
11713
鲜花
0
在线时间
585 小时
最后登录
2018-12-14
发表于 2018-6-8 16:53:13 | 显示全部楼层
每天都来中国高清论坛看看有什么电影!
回复 支持 反对

使用道具 举报

懒得打字嘛,点击右侧快捷回复 【右侧内容,后台自定义】
您需要登录后才可以回帖 登录 | 立即注册

本版积分规则

QQ|手机版|小黑屋|中国高清论坛 ( 黔ICP备16007815号-1 )

GMT+8, 2018-12-16 05:13 , Processed in 0.099690 second(s), 31 queries .

Powered by Discuz! X3.4

© 2001-2017 Comsenz Inc.

快速回复 返回顶部 返回列表