请选择 进入手机版 | 继续访问电脑版

中国高清论坛

 找回密码
 立即注册
111
搜索
查看: 1783|回复: 144

[恐怖片] 陌生人2/只杀陌生人(港/台) The.Strangers.Prey.at.Night.2018.1080p.BluRay.x264.DTS-HD.MA.5.1

  [复制链接]

区域版主

高清币
13869
金钱
32613
鲜花
-88
在线时间
10596 小时
最后登录
2018-12-16
发表于 2018-6-10 19:35:14 | 显示全部楼层 |阅读模式
本帖最后由 jinggangshi 于 2018-6-10 19:39 编辑




◎译  名 陌生人2/只杀陌生人(港/台)
◎片  名 Asahi Nagu / Asahinagu
◎年  代 2017
◎国  家 美国
◎类  别 恐怖
◎语  言 英语
◎字  幕 英文
◎IMDb评分 5.5/10 from 7,645 users
◎IMDb链接 https://www.imdb.com/title/tt1285009/
◎文件格式 x264 + DTS
◎视频尺寸 1920x808
◎文件大小 1CD 7.71  GiB
◎片  长 1 h 25 min
◎导  演 约翰内斯·罗伯茨 Johannes Roberts
◎主  演 克里斯蒂娜·亨德里克斯 Christina Hendricks
      拜莉·麦迪逊 Bailee Madison
      马丁·亨德森 Martin Henderson
      艾玛·贝洛米 Emma Bellomy
      刘易斯·普尔曼 Lewis Pullman
      莉·恩斯林 Lea Enslin



◎简  介

  故事讲述一家人因在旅行中迷路,误入一处荒凉的公园,不幸被戴着面具的神秘人——三个变态杀人狂追杀。事发深夜,这一家人要用尽他们所有的求生本能和求生技能,才有希望逃出生天.....
  1. Video
  2. ID                                       : 1
  3. Format                                   : AVC
  4. Format/Info                              : Advanced Video Codec
  5. Format profile                           : High@L4.1
  6. Format settings                          : CABAC / 5 Ref Frames
  7. Format settings, CABAC                   : Yes
  8. Format settings, ReFrames                : 5 frames
  9. Codec ID                                 : V_MPEG4/ISO/AVC
  10. Duration                                 : 1 h 25 min
  11. Bit rate                                 : 9 454 kb/s
  12. Width                                    : 1 920 pixels
  13. Height                                   : 808 pixels
  14. Display aspect ratio                     : 2.40:1
  15. Frame rate mode                          : Constant
  16. Frame rate                               : 23.976 FPS
  17. Color space                              : YUV
  18. Chroma subsampling                       : 4:2:0
  19. Bit depth                                : 8 bits
  20. Scan type                                : Progressive
  21. Bits/(Pixel*Frame)                       : 0.254
  22. Stream size                              : 5.65 GiB (73%)
  23. Title                                    : The.Strangers.Prey.at.Night.2018.1080p.BluRay.x264.DTS-HD.MA.5.1-FGT
  24. Writing library                          : x264 core 155 r2901 7d0ff22
  25. Encoding settings                        : cabac=1 / ref=5 / deblock=1:0:0 / analyse=0x3:0x133 / me=umh / subme=7 / psy=1 / psy_rd=1.00:0.00 / mixed_ref=1 / me_range=16 / chroma_me=1 / trellis=1 / 8x8dct=1 / cqm=0 / deadzone=21,11 / fast_pskip=0 / chroma_qp_offset=-2 / threads=25 / lookahead_threads=4 / sliced_threads=0 / nr=0 / decimate=1 / interlaced=0 / bluray_compat=0 / constrained_intra=0 / bframes=3 / b_pyramid=2 / b_adapt=1 / b_bias=0 / direct=1 / weightb=1 / open_gop=0 / weightp=2 / keyint=250 / keyint_min=23 / scenecut=40 / intra_refresh=0 / rc_lookahead=40 / rc=2pass / mbtree=1 / bitrate=9454 / ratetol=1.0 / qcomp=0.60 / qpmin=0 / qpmax=69 / qpstep=4 / cplxblur=20.0 / qblur=0.5 / ip_ratio=1.40 / aq=1:1.00
  26. Language                                 : English
  27. Default                                  : Yes
  28. Forced                                   : No

  29. Audio
  30. ID                                       : 2
  31. Format                                   : DTS
  32. Format/Info                              : Digital Theater Systems
  33. Format profile                           : MA / Core
  34. Codec ID                                 : A_DTS
  35. Duration                                 : 1 h 25 min
  36. Bit rate mode                            : Variable / Constant
  37. Bit rate                                 : 3 419 kb/s / 1 509 kb/s
  38. Channel(s)                               : 6 channels
  39. Channel positions                        : Front: L C R, Side: L R, LFE
  40. Sampling rate                            : 48.0 kHz
  41. Frame rate                               : 93.750 FPS (512 SPF)
  42. Bit depth                                : 24 bits
  43. Compression mode                         : Lossless / Lossy
  44. Stream size                              : 2.05 GiB (27%)
  45. Title                                    : The.Strangers.Prey.at.Night.2018.1080p.BluRay.x264.DTS-HD.MA.5.1-FGT
  46. Language                                 : English
  47. Default                                  : Yes
  48. Forced                                   : No

  49. Text #1
  50. ID                                       : 3
  51. Format                                   : UTF-8
  52. Codec ID                                 : S_TEXT/UTF8
  53. Codec ID/Info                            : UTF-8 Plain Text
  54. Duration                                 : 1 h 13 min
  55. Bit rate                                 : 26 b/s
  56. Count of elements                        : 618
  57. Stream size                              : 14.3 KiB (0%)
  58. Title                                    : English-SRT
  59. Language                                 : English
  60. Default                                  : Yes
  61. Forced                                   : No

  62. Text #2
  63. ID                                       : 4
  64. Format                                   : PGS
  65. Muxing mode                              : zlib
  66. Codec ID                                 : S_HDMV/PGS
  67. Codec ID/Info                            : Picture based subtitle format used on BDs/HD-DVDs
  68. Duration                                 : 1 h 16 min
  69. Bit rate                                 : 23.4 kb/s
  70. Count of elements                        : 1663
  71. Stream size                              : 12.8 MiB (0%)
  72. Title                                    : English-PGS
  73. Language                                 : English
  74. Default                                  : No
  75. Forced                                   : No

  76. Text #3
  77. ID                                       : 5
  78. Format                                   : PGS
  79. Muxing mode                              : zlib
  80. Codec ID                                 : S_HDMV/PGS
  81. Codec ID/Info                            : Picture based subtitle format used on BDs/HD-DVDs
  82. Duration                                 : 1 h 21 min
  83. Bit rate                                 : 13.6 kb/s
  84. Count of elements                        : 1115
  85. Stream size                              : 7.93 MiB (0%)
  86. Title                                    : Spanish-PGS
  87. Language                                 : Spanish
  88. Default                                  : No
  89. Forced                                   : No

  90. Menu
  91. 00:00:00.000                             : en:Chapter 01
  92. 00:04:59.882                             : en:Chapter 02
  93. 00:08:49.153                             : en:Chapter 03
  94. 00:12:58.110                             : en:Chapter 04
  95. 00:17:23.917                             : en:Chapter 05
  96. 00:21:53.770                             : en:Chapter 06
  97. 00:24:53.909                             : en:Chapter 07
  98. 00:30:15.104                             : en:Chapter 08
  99. 00:34:45.208                             : en:Chapter 09
  100. 00:40:01.899                             : en:Chapter 10
  101. 00:44:48.727                             : en:Chapter 11
  102. 00:49:48.443                             : en:Chapter 12
  103. 00:53:12.606                             : en:Chapter 13
  104. 00:56:55.995                             : en:Chapter 14
  105. 00:58:20.705                             : en:Chapter 15
  106. 01:00:37.884                             : en:Chapter 16
  107. 01:05:21.709                             : en:Chapter 17
  108. 01:09:17.528                             : en:Chapter 18
  109. 01:14:59.036                             : en:Chapter 19
  110. 01:18:07.349                             : en:Chapter 20



复制代码






游客,如果您要查看本帖隐藏内容请回复
回复

使用道具 举报

永恒神话

高清币
11364
金钱
20173
鲜花
0
在线时间
1264 小时
最后登录
2018-12-15
发表于 2018-6-10 19:41:51 | 显示全部楼层
每天都来中国高清论坛看看有什么电影!
回复 支持 反对

使用道具 举报

人气偶像

高清币
6
金钱
2174
鲜花
0
在线时间
932 小时
最后登录
2018-12-15
发表于 2018-6-10 19:44:11 | 显示全部楼层
RE: 巴霍巴利王2:终结 大陆公映版.[中文字幕] Baahubali.2.The.Conclusion.2017.R6.1080p.WEB-DL.x264.CHS-BTxiaba 2.91GB [[url=]修改[/url]]








回复 支持 反对

使用道具 举报

永恒神话

高清币
14892
金钱
26388
鲜花
0
在线时间
1818 小时
最后登录
2018-12-15
发表于 2018-6-10 19:44:14 | 显示全部楼层
谢谢发片,辛苦了
回复 支持 反对

使用道具 举报

人气偶像

高清币
1
金钱
1016
鲜花
0
在线时间
141 小时
最后登录
2018-12-14
发表于 2018-6-10 19:49:15 | 显示全部楼层
每天都来中国高清论坛看看有什么电影!
回复 支持 反对

使用道具 举报

金鸡奖主角

高清币
113
金钱
3602
鲜花
0
在线时间
907 小时
最后登录
2018-12-15
发表于 2018-6-10 19:54:10 | 显示全部楼层
感谢楼主分享精彩电影!
回复 支持 反对

使用道具 举报

金鸡奖主角

高清币
1046
金钱
1908
鲜花
0
在线时间
238 小时
最后登录
2018-12-12
发表于 2018-6-10 20:02:23 | 显示全部楼层
楼主分享的高清电影太好了!
回复 支持 反对

使用道具 举报

金鸡奖主角

高清币
851
金钱
4066
鲜花
0
在线时间
614 小时
最后登录
2018-12-12
发表于 2018-6-10 20:05:45 | 显示全部楼层
每天都来中国高清论坛看看有什么电影!
回复 支持 反对

使用道具 举报

超级明星

高清币
142
金钱
6834
鲜花
0
在线时间
396 小时
最后登录
2018-12-15
发表于 2018-6-10 20:12:05 | 显示全部楼层
感谢楼主分享
回复 支持 反对

使用道具 举报

知名艺人

高清币
4
金钱
335
鲜花
0
在线时间
53 小时
最后登录
2018-12-7
发表于 2018-6-10 20:12:36 | 显示全部楼层
感谢楼主无私分享!
回复 支持 反对

使用道具 举报

懒得打字嘛,点击右侧快捷回复 【右侧内容,后台自定义】
您需要登录后才可以回帖 登录 | 立即注册

本版积分规则

QQ|手机版|小黑屋|中国高清论坛 ( 黔ICP备16007815号-1 )

GMT+8, 2018-12-16 05:25 , Processed in 0.088347 second(s), 30 queries .

Powered by Discuz! X3.4

© 2001-2017 Comsenz Inc.

快速回复 返回顶部 返回列表