请选择 进入手机版 | 继续访问电脑版

中国高清论坛

 找回密码
 立即注册
111
搜索
查看: 1340|回复: 159

[REMUX] 爱你西蒙/亲爱的初恋 Love.Simon.2018.2160p.BluRay.REMUX.HEVC.DTS-HD.MA.5.1-FGT 57.00GB

  [复制链接]

超级版主

高清币
975450
金钱
31061
鲜花
2
在线时间
4149 小时
最后登录
2018-12-16
发表于 2018-6-12 05:35:00 | 显示全部楼层 |阅读模式


◎译  名 爱你,西蒙/亲爱的初恋(台)/抱抱我的初恋(港)/西蒙和他的出柜日记/爱你的西蒙/爱,赛蒙
◎片  名 Love, Simon
◎年  代 2018
◎产  地 美国
◎类  别 爱情/同性
◎语  言 英语
◎上映日期 2018-03-16(美国)
◎IMDb评分  7.9/10 from 33,707 users
◎IMDb链接  https://www.imdb.com/title/tt5164432/
◎豆瓣评分 8.3/10 from 29,729 users
◎豆瓣链接 https://movie.douban.com/subject/26654498/
◎片  长 110分钟
◎导  演 格里格·伯兰蒂 Greg Berlanti
◎主  演 尼克·罗宾森 Nick Robinson
      詹妮弗·加纳 Jennifer Garner
      乔什·杜哈明 Josh Duhamel
      小豪尔赫·兰登伯格 Jorge Lendeborg Jr.
      凯瑟琳·兰福德 Katherine Langford
      亚历山德拉·希普 Alexandra Shipp
      洛根·米勒 Logan Miller
      凯南·朗斯代尔 Keiynan Lonsdale
      特丽莎·贝特曼 Talitha Bateman
      托尼·海尔 Tony Hale
      娜塔莎·罗斯韦尔 Natasha Rothwell
      迈尔斯·赫尔泽 Miles Heizer
      乔伊·保罗瑞 Joey Pollari
      克拉克·穆尔 Clark Moore
      德鲁·斯塔基 Drew Starkey
      麦肯兹·林茨 Mackenzie Lintz
      卡萨迪·麦克林西 Cassady McClincy
      艾莉克斯·斯甘巴蒂 Alex Sgambati
      贾米拉·汤普森 Jamila Thompson
      艾米丽·乔丹 Emily Jordan
      帕特里克·多诺霍 Patrick Donohue
      特雷勒·希尔 Terayle Hill
      泰勒·切斯 Tyler Chase
      哈龙·汗 Haroon Khan
      约书亚·米克尔 Joshua Mikel
      尼古拉斯·斯塔格尔 Nicholas Stargel
      南茜·德·梅奥 Nancy De Mayo
      克里斯蒂安·奥乔·梅菲尔德 Christian Ojore Mayfield
      钱特尔·D·克里斯托弗 Chantell D. Christopher
      曼迪·法森 Mandy Fason
      菲利普·科文 Philip Covin
      罗比·罗杰斯 Robbie Rogers

◎简  介

  每个人都值得拥有一个伟大的爱情故事。但是对一个17岁的高中生「赛门」来说这一切却是件超複杂的事:第一、没有人知道他是同性恋;第二、他也搞不清楚自己爱上跟他一样有同样困扰的不具名网友到底是何方神圣???为了解决这两个大麻烦,赛门展开一段爆笑又吓人的解答过程,但他没料到的是,最后得到的答案却从此改变了自己的人生。

  1. Video
  2. ID                                       : 1
  3. Format                                   : HEVC
  4. Format/Info                              : High Efficiency Video Coding
  5. Commercial name                          : HDR10
  6. Format profile                           : Main 10@L5.1@High
  7. Codec IM                                 : I5QAYOL9X6A8XZCodec ID                                 : V_MPEGH/ISO/HEVC
  8. Duration                                 : 1 h 49 min
  9. Bit rate                                 : 64.3 Mb/s
  10. Width                                    : 3 840 pixels
  11. Height                                   : 2 160 pixels
  12. Display aspect ratio                     : 16:9
  13. Frame rate mode                          : Constant
  14. Frame rate                               : 23.976 (24000/1001) FPS
  15. Color space                              : YUV
  16. Chroma subsampling                       : 4:2:0 (Type 2)
  17. Bit depth                                : 10 bits
  18. Bits/(Pixel*Frame)                       : 0.324
  19. Stream size                              : 49.3 GiB (87%)
  20. Title                                    : Love.Simon.2018.2160p.BluRay.REMUX.HEVC.DTS-HD.MA.5.1-FGT
  21. Default                                  : Yes
  22. Forced                                   : No
  23. Color range                              : Limited
  24. Color primaries                          : BT.2020
  25. Transfer characteristics                 : PQ
  26. Matrix coefficients                      : BT.2020 non-constant
  27. Mastering display color primaries        : Display P3
  28. Mastering display luminance              : min: 0.0050 cd/m2, max: 1000 cd/m2

  29. Audio #1
  30. ID                                       : 2
  31. Format                                   : DTS
  32. Format/Info                              : Digital Theater Systems
  33. Format profile                           : MA / Core
  34. Codec IM                                 : I5QAYOL9X6A8XZCodec ID                                 : A_DTS
  35. Duration                                 : 1 h 49 min
  36. Bit rate mode                            : Variable / Constant
  37. Bit rate                                 : 3 623 kb/s / 1 509 kb/s
  38. Channel(s)                               : 6 channels
  39. Channel positions                        : Front: L C R, Side: L R, LFE
  40. Sampling rate                            : 48.0 kHz
  41. Frame rate                               : 93.750 FPS (512 SPF)
  42. Bit depth                                : 24 bits
  43. Compression mode                         : Lossless / Lossy
  44. Stream size                              : 2.78 GiB (5%)
  45. Title                                    : Love.Simon.2018.2160p.BluRay.REMUX.HEVC.DTS-HD.MA.5.1-FGT
  46. Language                                 : English
  47. Default                                  : Yes
  48. Forced                                   : No

  49. Audio #2
  50. ID                                       : 3
  51. Format                                   : AC-3
  52. Format/Info                              : Audio Coding 3
  53. Codec IM                                 : I5QAYOL9X6A8XZCodec ID                                 : A_AC3
  54. Duration                                 : 1 h 49 min
  55. Bit rate mode                            : Constant
  56. Bit rate                                 : 448 kb/s
  57. Channel(s)                               : 6 channels
  58. Channel positions                        : Front: L C R, Side: L R, LFE
  59. Sampling rate                            : 48.0 kHz
  60. Frame rate                               : 31.250 FPS (1536 SPF)
  61. Bit depth                                : 16 bits
  62. Compression mode                         : Lossy
  63. Stream size                              : 352 MiB (1%)
  64. Title                                    : Love.Simon.2018.2160p.BluRay.REMUX.HEVC.DTS-HD.MA.5.1-FGT
  65. Language                                 : English
  66. Service kind                             : Complete Main
  67. Default                                  : No
  68. Forced                                   : No

  69. Audio #3
  70. ID                                       : 4
  71. Format                                   : AC-3
  72. Format/Info                              : Audio Coding 3
  73. Codec IM                                 : I5QAYOL9X6A8XZCodec ID                                 : A_AC3
  74. Duration                                 : 1 h 49 min
  75. Bit rate mode                            : Constant
  76. Bit rate                                 : 448 kb/s
  77. Channel(s)                               : 6 channels
  78. Channel positions                        : Front: L C R, Side: L R, LFE
  79. Sampling rate                            : 48.0 kHz
  80. Frame rate                               : 31.250 FPS (1536 SPF)
  81. Bit depth                                : 16 bits
  82. Compression mode                         : Lossy
  83. Stream size                              : 352 MiB (1%)
  84. Title                                    : Love.Simon.2018.2160p.BluRay.REMUX.HEVC.DTS-HD.MA.5.1-FGT
  85. Language                                 : Spanish
  86. Service kind                             : Complete Main
  87. Default                                  : No
  88. Forced                                   : No

  89. Audio #4
  90. ID                                       : 5
  91. Format                                   : DTS
  92. Format/Info                              : Digital Theater Systems
  93. Codec IM                                 : I5QAYOL9X6A8XZCodec ID                                 : A_DTS
  94. Duration                                 : 1 h 49 min
  95. Bit rate mode                            : Constant
  96. Bit rate                                 : 768 kb/s
  97. Channel(s)                               : 6 channels
  98. Channel positions                        : Front: L C R, Side: L R, LFE
  99. Sampling rate                            : 48.0 kHz
  100. Frame rate                               : 93.750 FPS (512 SPF)
  101. Bit depth                                : 24 bits
  102. Compression mode                         : Lossy
  103. Stream size                              : 603 MiB (1%)
  104. Title                                    : Love.Simon.2018.2160p.BluRay.REMUX.HEVC.DTS-HD.MA.5.1-FGT
  105. Language                                 : French
  106. Default                                  : No
  107. Forced                                   : No

  108. Audio #5
  109. ID                                       : 6
  110. Format                                   : DTS
  111. Format/Info                              : Digital Theater Systems
  112. Codec IM                                 : I5QAYOL9X6A8XZCodec ID                                 : A_DTS
  113. Duration                                 : 1 h 49 min
  114. Bit rate mode                            : Constant
  115. Bit rate                                 : 768 kb/s
  116. Channel(s)                               : 6 channels
  117. Channel positions                        : Front: L C R, Side: L R, LFE
  118. Sampling rate                            : 48.0 kHz
  119. Frame rate                               : 93.750 FPS (512 SPF)
  120. Bit depth                                : 24 bits
  121. Compression mode                         : Lossy
  122. Stream size                              : 603 MiB (1%)
  123. Title                                    : Love.Simon.2018.2160p.BluRay.REMUX.HEVC.DTS-HD.MA.5.1-FGT
  124. Language                                 : Spanish
  125. Default                                  : No
  126. Forced                                   : No

  127. Audio #6
  128. ID                                       : 7
  129. Format                                   : DTS
  130. Format/Info                              : Digital Theater Systems
  131. Codec IM                                 : I5QAYOL9X6A8XZCodec ID                                 : A_DTS
  132. Duration                                 : 1 h 49 min
  133. Bit rate mode                            : Constant
  134. Bit rate                                 : 768 kb/s
  135. Channel(s)                               : 6 channels
  136. Channel positions                        : Front: L C R, Side: L R, LFE
  137. Sampling rate                            : 48.0 kHz
  138. Frame rate                               : 93.750 FPS (512 SPF)
  139. Bit depth                                : 24 bits
  140. Compression mode                         : Lossy
  141. Stream size                              : 603 MiB (1%)
  142. Title                                    : Love.Simon.2018.2160p.BluRay.REMUX.HEVC.DTS-HD.MA.5.1-FGT
  143. Language                                 : German
  144. Default                                  : No
  145. Forced                                   : No

  146. Audio #7
  147. ID                                       : 8
  148. Format                                   : DTS
  149. Format/Info                              : Digital Theater Systems
  150. Codec IM                                 : I5QAYOL9X6A8XZCodec ID                                 : A_DTS
  151. Duration                                 : 1 h 49 min
  152. Bit rate mode                            : Constant
  153. Bit rate                                 : 768 kb/s
  154. Channel(s)                               : 6 channels
  155. Channel positions                        : Front: L C R, Side: L R, LFE
  156. Sampling rate                            : 48.0 kHz
  157. Frame rate                               : 93.750 FPS (512 SPF)
  158. Bit depth                                : 24 bits
  159. Compression mode                         : Lossy
  160. Stream size                              : 603 MiB (1%)
  161. Title                                    : Love.Simon.2018.2160p.BluRay.REMUX.HEVC.DTS-HD.MA.5.1-FGT
  162. Language                                 : Italian
  163. Default                                  : No
  164. Forced                                   : No

  165. Audio #8
  166. ID                                       : 9
  167. Format                                   : DTS
  168. Format/Info                              : Digital Theater Systems
  169. Codec IM                                 : I5QAYOL9X6A8XZCodec ID                                 : A_DTS
  170. Duration                                 : 1 h 49 min
  171. Bit rate mode                            : Constant
  172. Bit rate                                 : 768 kb/s
  173. Channel(s)                               : 6 channels
  174. Channel positions                        : Front: L C R, Side: L R, LFE
  175. Sampling rate                            : 48.0 kHz
  176. Frame rate                               : 93.750 FPS (512 SPF)
  177. Bit depth                                : 24 bits
  178. Compression mode                         : Lossy
  179. Stream size                              : 603 MiB (1%)
  180. Title                                    : Love.Simon.2018.2160p.BluRay.REMUX.HEVC.DTS-HD.MA.5.1-FGT
  181. Language                                 : Japanese
  182. Default                                  : No
  183. Forced                                   : No

  184. Audio #9
  185. ID                                       : 10
  186. Format                                   : AC-3
  187. Format/Info                              : Audio Coding 3
  188. Codec IM                                 : I5QAYOL9X6A8XZCodec ID                                 : A_AC3
  189. Duration                                 : 1 h 49 min
  190. Bit rate mode                            : Constant
  191. Bit rate                                 : 448 kb/s
  192. Channel(s)                               : 6 channels
  193. Channel positions                        : Front: L C R, Side: L R, LFE
  194. Sampling rate                            : 48.0 kHz
  195. Frame rate                               : 31.250 FPS (1536 SPF)
  196. Bit depth                                : 16 bits
  197. Compression mode                         : Lossy
  198. Stream size                              : 352 MiB (1%)
  199. Title                                    : Love.Simon.2018.2160p.BluRay.REMUX.HEVC.DTS-HD.MA.5.1-FGT
  200. Language                                 : Czech
  201. Service kind                             : Complete Main
  202. Default                                  : No
  203. Forced                                   : No

  204. Audio #10
  205. ID                                       : 11
  206. Format                                   : AC-3
  207. Format/Info                              : Audio Coding 3
  208. Codec IM                                 : I5QAYOL9X6A8XZCodec ID                                 : A_AC3
  209. Duration                                 : 1 h 49 min
  210. Bit rate mode                            : Constant
  211. Bit rate                                 : 448 kb/s
  212. Channel(s)                               : 6 channels
  213. Channel positions                        : Front: L C R, Side: L R, LFE
  214. Sampling rate                            : 48.0 kHz
  215. Frame rate                               : 31.250 FPS (1536 SPF)
  216. Bit depth                                : 16 bits
  217. Compression mode                         : Lossy
  218. Stream size                              : 352 MiB (1%)
  219. Title                                    : Love.Simon.2018.2160p.BluRay.REMUX.HEVC.DTS-HD.MA.5.1-FGT
  220. Language                                 : Polish
  221. Service kind                             : Complete Main
  222. Default                                  : No
  223. Forced                                   : No

  224. Audio #11
  225. ID                                       : 12
  226. Format                                   : AC-3
  227. Format/Info                              : Audio Coding 3
  228. Codec IM                                 : I5QAYOL9X6A8XZCodec ID                                 : A_AC3
  229. Duration                                 : 1 h 49 min
  230. Bit rate mode                            : Constant
  231. Bit rate                                 : 224 kb/s
  232. Channel(s)                               : 2 channels
  233. Channel positions                        : Front: L R
  234. Sampling rate                            : 48.0 kHz
  235. Frame rate                               : 31.250 FPS (1536 SPF)
  236. Bit depth                                : 16 bits
  237. Compression mode                         : Lossy
  238. Stream size                              : 176 MiB (0%)
  239. Title                                    : Love.Simon.2018.2160p.BluRay.REMUX.HEVC.DTS-HD.MA.5.1-FGT
  240. Language                                 : English
  241. Service kind                             : Complete Main
  242. Default                                  : No
  243. Forced                                   : No

  244. Text #1
  245. ID                                       : 13
  246. Format                                   : PGS
  247. Muxing mode                              : zlib
  248. Codec IM                                 : I5QAYOL9X6A8XZCodec ID                                 : S_HDMV/PGS
  249. Codec IM                                 : I5QAYOL9X6A8XZCodec ID/Info                            : Picture based subtitle format used on BDs/HD-DVDs
  250. Duration                                 : 1 h 47 min
  251. Bit rate                                 : 89.9 kb/s
  252. Count of elements                        : 4280
  253. Stream size                              : 69.0 MiB (0%)
  254. Title                                    : English-PGS
  255. Language                                 : English
  256. Default                                  : Yes
  257. Forced                                   : No

  258. Text #2
  259. ID                                       : 14
  260. Format                                   : PGS
  261. Muxing mode                              : zlib
  262. Codec IM                                 : I5QAYOL9X6A8XZCodec ID                                 : S_HDMV/PGS
  263. Codec IM                                 : I5QAYOL9X6A8XZCodec ID/Info                            : Picture based subtitle format used on BDs/HD-DVDs
  264. Duration                                 : 1 h 48 min
  265. Bit rate                                 : 56.9 kb/s
  266. Count of elements                        : 3256
  267. Stream size                              : 44.3 MiB (0%)
  268. Title                                    : French-PGS
  269. Language                                 : French
  270. Default                                  : No
  271. Forced                                   : No

  272. Text #3
  273. ID                                       : 15
  274. Format                                   : PGS
  275. Muxing mode                              : zlib
  276. Codec IM                                 : I5QAYOL9X6A8XZCodec ID                                 : S_HDMV/PGS
  277. Codec IM                                 : I5QAYOL9X6A8XZCodec ID/Info                            : Picture based subtitle format used on BDs/HD-DVDs
  278. Duration                                 : 1 h 48 min
  279. Bit rate                                 : 69.2 kb/s
  280. Count of elements                        : 3416
  281. Stream size                              : 53.9 MiB (0%)
  282. Title                                    : Spanish-PGS
  283. Language                                 : Spanish
  284. Default                                  : No
  285. Forced                                   : No

  286. Text #4
  287. ID                                       : 16
  288. Format                                   : PGS
  289. Muxing mode                              : zlib
  290. Codec IM                                 : I5QAYOL9X6A8XZCodec ID                                 : S_HDMV/PGS
  291. Codec IM                                 : I5QAYOL9X6A8XZCodec ID/Info                            : Picture based subtitle format used on BDs/HD-DVDs
  292. Duration                                 : 1 h 48 min
  293. Bit rate                                 : 62.6 kb/s
  294. Count of elements                        : 2454
  295. Stream size                              : 48.8 MiB (0%)
  296. Title                                    : Danish-PGS
  297. Language                                 : Danish
  298. Default                                  : No
  299. Forced                                   : No

  300. Text #5
  301. ID                                       : 17
  302. Format                                   : PGS
  303. Muxing mode                              : zlib
  304. Codec IM                                 : I5QAYOL9X6A8XZCodec ID                                 : S_HDMV/PGS
  305. Codec IM                                 : I5QAYOL9X6A8XZCodec ID/Info                            : Picture based subtitle format used on BDs/HD-DVDs
  306. Duration                                 : 1 h 48 min
  307. Bit rate                                 : 57.9 kb/s
  308. Count of elements                        : 2706
  309. Stream size                              : 45.1 MiB (0%)
  310. Title                                    : Dutch-PGS
  311. Language                                 : Dutch
  312. Default                                  : No
  313. Forced                                   : No

  314. Text #6
  315. ID                                       : 18
  316. Format                                   : PGS
  317. Muxing mode                              : zlib
  318. Codec IM                                 : I5QAYOL9X6A8XZCodec ID                                 : S_HDMV/PGS
  319. Codec IM                                 : I5QAYOL9X6A8XZCodec ID/Info                            : Picture based subtitle format used on BDs/HD-DVDs
  320. Duration                                 : 1 h 48 min
  321. Bit rate                                 : 64.7 kb/s
  322. Count of elements                        : 3582
  323. Stream size                              : 50.4 MiB (0%)
  324. Title                                    : Finnish-PGS
  325. Language                                 : Finnish
  326. Default                                  : No
  327. Forced                                   : No

  328. Text #7
  329. ID                                       : 19
  330. Format                                   : PGS
  331. Muxing mode                              : zlib
  332. Codec IM                                 : I5QAYOL9X6A8XZCodec ID                                 : S_HDMV/PGS
  333. Codec IM                                 : I5QAYOL9X6A8XZCodec ID/Info                            : Picture based subtitle format used on BDs/HD-DVDs
  334. Duration                                 : 1 h 48 min
  335. Bit rate                                 : 76.8 kb/s
  336. Count of elements                        : 3302
  337. Stream size                              : 59.8 MiB (0%)
  338. Title                                    : German-PGS
  339. Language                                 : German
  340. Default                                  : No
  341. Forced                                   : No

  342. Text #8
  343. ID                                       : 20
  344. Format                                   : PGS
  345. Muxing mode                              : zlib
  346. Codec IM                                 : I5QAYOL9X6A8XZCodec ID                                 : S_HDMV/PGS
  347. Codec IM                                 : I5QAYOL9X6A8XZCodec ID/Info                            : Picture based subtitle format used on BDs/HD-DVDs
  348. Duration                                 : 1 h 48 min
  349. Bit rate                                 : 73.9 kb/s
  350. Count of elements                        : 3618
  351. Stream size                              : 57.5 MiB (0%)
  352. Title                                    : Italian-PGS
  353. Language                                 : Italian
  354. Default                                  : No
  355. Forced                                   : No

  356. Text #9
  357. ID                                       : 21
  358. Format                                   : PGS
  359. Muxing mode                              : zlib
  360. Codec IM                                 : I5QAYOL9X6A8XZCodec ID                                 : S_HDMV/PGS
  361. Codec IM                                 : I5QAYOL9X6A8XZCodec ID/Info                            : Picture based subtitle format used on BDs/HD-DVDs
  362. Duration                                 : 1 h 48 min
  363. Bit rate                                 : 24.4 kb/s
  364. Count of elements                        : 3218
  365. Stream size                              : 19.0 MiB (0%)
  366. Title                                    : Japanese-PGS
  367. Language                                 : Japanese
  368. Default                                  : No
  369. Forced                                   : No

  370. Text #10
  371. ID                                       : 22
  372. Format                                   : PGS
  373. Muxing mode                              : zlib
  374. Codec IM                                 : I5QAYOL9X6A8XZCodec ID                                 : S_HDMV/PGS
  375. Codec IM                                 : I5QAYOL9X6A8XZCodec ID/Info                            : Picture based subtitle format used on BDs/HD-DVDs
  376. Duration                                 : 1 h 41 min
  377. Bit rate                                 : 489 b/s
  378. Count of elements                        : 78
  379. Stream size                              : 364 KiB (0%)
  380. Title                                    : Japanese-PGS
  381. Language                                 : Japanese
  382. Default                                  : No
  383. Forced                                   : No

  384. Text #11
  385. ID                                       : 23
  386. Format                                   : PGS
  387. Muxing mode                              : zlib
  388. Codec IM                                 : I5QAYOL9X6A8XZCodec ID                                 : S_HDMV/PGS
  389. Codec IM                                 : I5QAYOL9X6A8XZCodec ID/Info                            : Picture based subtitle format used on BDs/HD-DVDs
  390. Duration                                 : 1 h 48 min
  391. Bit rate                                 : 69.3 kb/s
  392. Count of elements                        : 3642
  393. Stream size                              : 54.0 MiB (0%)
  394. Title                                    : Norwegian-PGS
  395. Language                                 : Norwegian
  396. Default                                  : No
  397. Forced                                   : No

  398. Text #12
  399. ID                                       : 24
  400. Format                                   : PGS
  401. Muxing mode                              : zlib
  402. Codec IM                                 : I5QAYOL9X6A8XZCodec ID                                 : S_HDMV/PGS
  403. Codec IM                                 : I5QAYOL9X6A8XZCodec ID/Info                            : Picture based subtitle format used on BDs/HD-DVDs
  404. Duration                                 : 1 h 48 min
  405. Bit rate                                 : 67.9 kb/s
  406. Count of elements                        : 3644
  407. Stream size                              : 52.9 MiB (0%)
  408. Title                                    : Swedish-PGS
  409. Language                                 : Swedish
  410. Default                                  : No
  411. Forced                                   : No

  412. Text #13
  413. ID                                       : 25
  414. Format                                   : PGS
  415. Muxing mode                              : zlib
  416. Codec IM                                 : I5QAYOL9X6A8XZCodec ID                                 : S_HDMV/PGS
  417. Codec IM                                 : I5QAYOL9X6A8XZCodec ID/Info                            : Picture based subtitle format used on BDs/HD-DVDs
  418. Duration                                 : 1 h 48 min
  419. Bit rate                                 : 52.3 kb/s
  420. Count of elements                        : 3738
  421. Stream size                              : 40.8 MiB (0%)
  422. Title                                    : Chinese-PGS
  423. Language                                 : Chinese
  424. Default                                  : No
  425. Forced                                   : No

  426. Text #14
  427. ID                                       : 26
  428. Format                                   : PGS
  429. Muxing mode                              : zlib
  430. Codec IM                                 : I5QAYOL9X6A8XZCodec ID                                 : S_HDMV/PGS
  431. Codec IM                                 : I5QAYOL9X6A8XZCodec ID/Info                            : Picture based subtitle format used on BDs/HD-DVDs
  432. Duration                                 : 1 h 48 min
  433. Bit rate                                 : 67.0 kb/s
  434. Count of elements                        : 3686
  435. Stream size                              : 52.2 MiB (0%)
  436. Title                                    : Czech-PGS
  437. Language                                 : Czech
  438. Default                                  : No
  439. Forced                                   : No

  440. Text #15
  441. ID                                       : 27
  442. Format                                   : PGS
  443. Muxing mode                              : zlib
  444. Codec IM                                 : I5QAYOL9X6A8XZCodec ID                                 : S_HDMV/PGS
  445. Codec IM                                 : I5QAYOL9X6A8XZCodec ID/Info                            : Picture based subtitle format used on BDs/HD-DVDs
  446. Duration                                 : 1 h 48 min
  447. Bit rate                                 : 54.9 kb/s
  448. Count of elements                        : 3876
  449. Stream size                              : 42.8 MiB (0%)
  450. Title                                    : Chinese-PGS
  451. Language                                 : Chinese
  452. Default                                  : No
  453. Forced                                   : No

  454. Text #16
  455. ID                                       : 28
  456. Format                                   : PGS
  457. Muxing mode                              : zlib
  458. Codec IM                                 : I5QAYOL9X6A8XZCodec ID                                 : S_HDMV/PGS
  459. Codec IM                                 : I5QAYOL9X6A8XZCodec ID/Info                            : Picture based subtitle format used on BDs/HD-DVDs
  460. Duration                                 : 1 h 48 min
  461. Bit rate                                 : 53.5 kb/s
  462. Count of elements                        : 3408
  463. Stream size                              : 41.7 MiB (0%)
  464. Title                                    : Polish-PGS
  465. Language                                 : Polish
  466. Default                                  : No
  467. Forced                                   : No

  468. Text #17
  469. ID                                       : 29
  470. Format                                   : PGS
  471. Muxing mode                              : zlib
  472. Codec IM                                 : I5QAYOL9X6A8XZCodec ID                                 : S_HDMV/PGS
  473. Codec IM                                 : I5QAYOL9X6A8XZCodec ID/Info                            : Picture based subtitle format used on BDs/HD-DVDs
  474. Duration                                 : 1 h 47 min
  475. Bit rate                                 : 139 kb/s
  476. Count of elements                        : 4130
  477. Stream size                              : 106 MiB (0%)
  478. Title                                    : English-COMMENTARY-PGS
  479. Language                                 : English
  480. Default                                  : No
  481. Forced                                   : No

  482. Text #18
  483. ID                                       : 30
  484. Format                                   : PGS
  485. Muxing mode                              : zlib
  486. Codec IM                                 : I5QAYOL9X6A8XZCodec ID                                 : S_HDMV/PGS
  487. Codec IM                                 : I5QAYOL9X6A8XZCodec ID/Info                            : Picture based subtitle format used on BDs/HD-DVDs
  488. Duration                                 : 1 h 48 min
  489. Bit rate                                 : 71.9 kb/s
  490. Count of elements                        : 3686
  491. Stream size                              : 56.0 MiB (0%)
  492. Title                                    : Spanish-COMMENTARY-PGS
  493. Language                                 : Spanish
  494. Default                                  : No
  495. Forced                                   : No

  496. Menu
  497. 00:00:00.000                             : en:Chapter 1
  498. 00:04:13.795                             : en:Chapter 2
  499. 00:08:39.060                             : en:Chapter 3
  500. 00:13:51.121                             : en:Chapter 4
  501. 00:18:04.041                             : en:Chapter 5
  502. 00:25:38.328                             : en:Chapter 6
  503. 00:29:25.138                             : en:Chapter 7
  504. 00:33:52.697                             : en:Chapter 8
  505. 00:42:03.437                             : en:Chapter 9
  506. 00:47:46.947                             : en:Chapter 10
  507. 00:54:15.043                             : en:Chapter 11
  508. 00:59:24.435                             : en:Chapter 12
  509. 01:02:49.390                             : en:Chapter 13
  510. 01:05:41.145                             : en:Chapter 14
  511. 01:09:55.399                             : en:Chapter 15
  512. 01:17:11.501                             : en:Chapter 16
  513. 01:20:03.673                             : en:Chapter 17
  514. 01:22:22.687                             : en:Chapter 18
  515. 01:24:27.562                             : en:Chapter 19
  516. 01:27:52.850                             : en:Chapter 20
  517. 01:32:35.633                             : en:Chapter 21
  518. 01:38:17.433                             : en:Chapter 22
  519. 01:41:13.192                             : en:Chapter 23
  520. 01:45:45.339                             : en:Chapter 24

复制代码
游客,如果您要查看本帖隐藏内容请回复

回复

使用道具 举报

永恒神话

高清币
20678
金钱
24232
鲜花
0
在线时间
1143 小时
最后登录
2018-12-15
发表于 2018-6-12 05:37:13 | 显示全部楼层
感谢楼主分享精彩电影!
回复 支持 反对

使用道具 举报

超级明星

高清币
26
金钱
7774
鲜花
0
在线时间
1397 小时
最后登录
2018-12-14
发表于 2018-6-12 05:55:25 | 显示全部楼层
既然你诚信诚意的推荐了,那我就勉为其难的看看吧!
回复 支持 反对

使用道具 举报

永恒神话

高清币
7013
金钱
26592
鲜花
0
在线时间
1656 小时
最后登录
2018-12-16
发表于 2018-6-12 06:53:39 | 显示全部楼层
感谢分享精彩好电影!!!
回复 支持 反对

使用道具 举报

BT发布组

高清币
6416
金钱
15058
鲜花
0
在线时间
2800 小时
最后登录
2018-12-15
发表于 2018-6-12 07:13:36 | 显示全部楼层
每天都来中国高清论坛看看有什么电影!
回复 支持 反对

使用道具 举报

VIP贵宾

高清币
2751
金钱
17146
鲜花
0
在线时间
2903 小时
最后登录
2018-12-15
发表于 2018-6-12 07:16:46 | 显示全部楼层
感谢楼主分享精彩电影!
回复 支持 反对

使用道具 举报

天王巨星

高清币
2
金钱
3300
鲜花
0
在线时间
905 小时
最后登录
2018-12-15
发表于 2018-6-12 07:25:03 | 显示全部楼层
楼主分享的高清电影太好了!
回复 支持 反对

使用道具 举报

超级明星

高清币
2
金钱
8591
鲜花
0
在线时间
1963 小时
最后登录
2018-12-15
发表于 2018-6-12 07:25:22 | 显示全部楼层
谢谢楼主分享
回复 支持 反对

使用道具 举报

金鸡奖主角

高清币
536
金钱
3964
鲜花
0
在线时间
983 小时
最后登录
2018-12-15
发表于 2018-6-12 07:30:17 | 显示全部楼层
每天都来中国高清论坛看看有什么电影!
回复 支持 反对

使用道具 举报

超级明星

高清币
2
金钱
8591
鲜花
0
在线时间
1963 小时
最后登录
2018-12-15
发表于 2018-6-12 07:30:45 | 显示全部楼层
中国高清论坛很棒!
回复 支持 反对

使用道具 举报

懒得打字嘛,点击右侧快捷回复 【右侧内容,后台自定义】
您需要登录后才可以回帖 登录 | 立即注册

本版积分规则

QQ|手机版|小黑屋|中国高清论坛 ( 黔ICP备16007815号-1 )

GMT+8, 2018-12-16 04:28 , Processed in 0.107000 second(s), 31 queries .

Powered by Discuz! X3.4

© 2001-2017 Comsenz Inc.

快速回复 返回顶部 返回列表