请选择 进入手机版 | 继续访问电脑版

中国高清论坛

 找回密码
 立即注册
111
搜索
查看: 5118|回复: 920

[剧情片] 失乐园 Lost.Paradise.1997.JAPANESE.1080p.AMZN.WEBRip.DDP2.0.x264-ARiN 10.75GB

  [复制链接]

超级版主

高清币
975456
金钱
31061
鲜花
2
在线时间
4149 小时
最后登录
2018-12-16
发表于 2018-6-13 21:55:55 | 显示全部楼层 |阅读模式
本帖最后由 ccbby 于 2018-7-9 10:06 编辑


5b1b22be86758.jpg
◎译  名 失乐园
◎片  名 失楽園
◎年  代 1997
◎产  地 日本
◎类  别 剧情/爱情/情色
◎语  言 日语
◎上映日期 1997-05-10(日本)
◎IMDb评分  6.6/10 from 399 users
◎IMDb链接  http://www.imdb.com/title/tt0120120/
◎豆瓣评分 7.3/10 from 21,520 users
◎豆瓣链接 https://movie.douban.com/subject/1308567/
◎片  长 119分钟
◎导  演 森田芳光 Yoshimitsu Morita
◎主  演 役所广司 Kôji Yakusho
寺尾聪 Akira Terao
黑木瞳 Hitomi Kuroki
柴俊夫 Toshio Shiba
星野知子 Tomoko Hoshino
木村佳乃 Yoshino Kimura

◎简  介

久木祥一郎(役所广司饰)是一家出版社的高级编辑,妻子久木文枝(星野知子饰)做设计陶制品,已成年的女儿在医院工作,很少回家。祥一朗感到家庭生活乏味,夫妻间总是客客气气。
祥一郎有个情人,业余书法教师松原凛子(黑木瞳饰)。凛子气质高雅,是个聪慧女子。可惜嫁了个毫无情趣的医生丈夫松原晴彦。他冷冰冰的,导致二人婚姻空虚。一次他坚决地告诉凛子决不会和她离婚,他掌握有妻子偷情的证据,并揭发了事情。另一边文枝却默默承受,最终也只能离婚。冬季到来,祥一郎和凛子怎么才能永远的和对方长相厮守呢?

◎获奖情况

第21届日本电影学院奖  (1998)
最佳导演(提名) 森田芳光
最佳编剧(提名) 筒井智美
最佳女主角 黑木瞳
最佳男配角(提名) 寺尾聪
最佳女配角(提名) 星野知子
最佳配乐(提名) 大岛满
最佳摄影(提名) 高濑比吕志
最佳美术指导(提名) 小泽秀高
最佳照明(提名) 小野晃
最佳录音(提名) 桥本文雄
最佳剪辑(提名) 田中慎二
最佳新人 木村佳乃

第22届报知映画赏  (1997)
最佳女主角 黑木瞳
  1. Video
  2. ID                                       : 1
  3. Format                                   : AVC
  4. Format/Info                              : Advanced Video Codec
  5. Format profile                           : High@L4
  6. Format settings                          : CABAC / 4 Ref Frames
  7. Format settings, CABAC                   : Yes
  8. Format settings, ReFrames                : 4 frames
  9. Codec ID                                 : V_MPEG4/ISO/AVC
  10. Duration                                 : 1 h 59 min
  11. Bit rate mode                            : Variable
  12. Bit rate                                 : 12.7 Mb/s
  13. Maximum bit rate                         : 15.0 Mb/s
  14. Width                                    : 1 920 pixels
  15. Height                                   : 1 080 pixels
  16. Display aspect ratio                     : 16:9
  17. Frame rate mode                          : Constant
  18. Frame rate                               : 23.976 (24000/1001) FPS
  19. Color space                              : YUV
  20. Chroma subsampling                       : 4:2:0
  21. Bit depth                                : 8 bits
  22. Scan type                                : Progressive
  23. Bits/(Pixel*Frame)                       : 0.255
  24. Stream size                              : 10.6 GiB (98%)
  25. Writing library                          : x264 core 148 r2623 d5b2374
  26. Encoding settings                        : cabac=1 / ref=4 / deblock=1:-1:-1 / analyse=0x3:0x133 / me=umh / subme=9 / psy=1 / psy_rd=1.00:0.15 / mixed_ref=1 / me_range=24 / chroma_me=1 / trellis=2 / 8x8dct=1 / cqm=0 / deadzone=21,11 / fast_pskip=1 / chroma_qp_offset=-3 / threads=34 / lookahead_threads=5 / sliced_threads=0 / nr=150 / decimate=1 / interlaced=0 / bluray_compat=0 / constrained_intra=0 / bframes=8 / b_pyramid=2 / b_adapt=2 / b_bias=0 / direct=3 / weightb=1 / open_gop=0 / weightp=2 / keyint=120 / keyint_min=61 / scenecut=0 / intra_refresh=0 / rc_lookahead=120 / rc=crf / mbtree=1 / crf=18.0 / qcomp=0.60 / qpmin=0 / qpmax=69 / qpstep=4 / vbv_maxrate=15000 / vbv_bufsize=31250 / crf_max=0.0 / nal_hrd=vbr / filler=0 / ip_ratio=1.40 / aq=3:1.00
  27. Default                                  : Yes
  28. Forced                                   : No
  29. Color range                              : Limited
  30. Color primaries                          : BT.709
  31. Transfer characteristics                 : BT.709
  32. Matrix coefficients                      : BT.709

  33. Audio
  34. ID                                       : 2
  35. Format                                   : E-AC-3
  36. Format/Info                              : Enhanced Audio Coding 3
  37. Codec ID                                 : A_EAC3
  38. Duration                                 : 1 h 59 min
  39. Bit rate mode                            : Constant
  40. Bit rate                                 : 224 kb/s
  41. Channel(s)                               : 2 channels
  42. Channel positions                        : Front: L R
  43. Sampling rate                            : 48.0 kHz
  44. Frame rate                               : 187.500 FPS (256 SPF)
  45. Compression mode                         : Lossy
  46. Stream size                              : 191 MiB (2%)
  47. Language                                 : Japanese
  48. Service kind                             : Complete Main
  49. Default                                  : Yes
  50. Forced                                   : No
复制代码





游客,如果您要查看本帖隐藏内容请回复

回复

使用道具 举报

金鸡奖主角

高清币
990
金钱
3373
鲜花
0
在线时间
1337 小时
最后登录
2018-12-16
发表于 2018-6-13 21:57:26 | 显示全部楼层
日本电影学院奖
回复 支持 反对

使用道具 举报

影坛巨星

高清币
3563
金钱
6556
鲜花
0
在线时间
502 小时
最后登录
2018-12-15
发表于 2018-6-13 22:01:10 | 显示全部楼层
我看不错噢 谢谢楼主!
回复 支持 反对

使用道具 举报

永恒神话

高清币
14892
金钱
26388
鲜花
0
在线时间
1818 小时
最后登录
2018-12-15
发表于 2018-6-13 22:02:05 | 显示全部楼层
谢谢发片,辛苦了
回复 支持 反对

使用道具 举报

知名艺人

高清币
2
金钱
442
鲜花
0
在线时间
85 小时
最后登录
2018-12-15
发表于 2018-6-13 22:02:26 | 显示全部楼层
每天都来中国高清论坛看看有什么电影!
回复 支持 反对

使用道具 举报

知名艺人

高清币
10
金钱
588
鲜花
0
在线时间
172 小时
最后登录
2018-11-10
发表于 2018-6-13 22:02:44 | 显示全部楼层
haohaohaohaohaohaohaohaohao
回复 支持 反对

使用道具 举报

金鸡奖主角

高清币
371
金钱
3418
鲜花
0
在线时间
216 小时
最后登录
2018-12-15
发表于 2018-6-13 22:03:04 | 显示全部楼层
我看不错噢 谢谢楼主!
回复 支持 反对

使用道具 举报

知名艺人

高清币
2
金钱
442
鲜花
0
在线时间
85 小时
最后登录
2018-12-15
发表于 2018-6-13 22:04:16 | 显示全部楼层
我看不错噢 谢谢楼主!
回复 支持 反对

使用道具 举报

天王巨星

高清币
167
金钱
1677
鲜花
0
在线时间
207 小时
最后登录
2018-12-13
发表于 2018-6-13 22:04:35 | 显示全部楼层
每天都来中国高清论坛看看有什么电影!
回复 支持 反对

使用道具 举报

天王巨星

高清币
6
金钱
2036
鲜花
0
在线时间
205 小时
最后登录
2018-12-15
发表于 2018-6-13 22:05:29 | 显示全部楼层
每天都来中国高清论坛看看有什么电影!
回复 支持 反对

使用道具 举报

懒得打字嘛,点击右侧快捷回复 【右侧内容,后台自定义】
您需要登录后才可以回帖 登录 | 立即注册

本版积分规则

QQ|手机版|小黑屋|中国高清论坛 ( 黔ICP备16007815号-1 )

GMT+8, 2018-12-16 05:02 , Processed in 0.104818 second(s), 31 queries .

Powered by Discuz! X3.4

© 2001-2017 Comsenz Inc.

快速回复 返回顶部 返回列表