请选择 进入手机版 | 继续访问电脑版

中国高清论坛

 找回密码
 立即注册
111
搜索
查看: 832|回复: 68

[动作片] 变速 Shifting.Gears.2018.1080p.WEB-DL.DD5.1.H264-FGT 3.93 GiB

  [复制链接]

区域版主

高清币
13869
金钱
32613
鲜花
-88
在线时间
10596 小时
最后登录
2018-12-16
发表于 2018-6-13 22:20:13 | 显示全部楼层 |阅读模式



◎译  名 变速
◎片  名 Shifting Gears
◎年  代 2018
◎国  家 美国国
◎类  别 动作/喜剧/家庭/体育
◎语  言 英语
◎字  幕 英文
◎IMDb评分 7.3/10 from 27 users
◎IMDB链接 http://imdb.com/title/tt4264610/
◎文件格式 H264 + DD5.1
◎视频尺寸 1920x1080
◎文件大小 3.93 GiB
◎片  长 1 h 41 min
◎导  演 Jason Winn
◎主  演 C. Thomas Howell... Jenkins
       Brooke Langton... Carol Williamson
       John Ratzenberger... Conrad Baines
       M.C. Gainey... D. H. - Dirty Harry Hawkins
       M. Emmet Walsh... Hank
       Adam Hicks... eremy Williamson
       R. Keith Harris ... Tom Williamson



◎简  介


  Tom, an over-worked husband and father, abandons his dead-end job to follow his dream of owning his own business. The only problem: he invested everything in a mechanic shop that has a lien in favor of his arch enemy and must now enter a dirt track race to win the prize money and save his family from ruin.
  1. Video
  2. ID                                       : 1
  3. Format                                   : AVC
  4. Format/Info                              : Advanced Video Codec
  5. Format profile                           : High@L4
  6. Format settings                          : CABAC / 4 Ref Frames
  7. Format settings, CABAC                   : Yes
  8. Format settings, ReFrames                : 4 frames
  9. Codec ID                                 : V_MPEG4/ISO/AVC
  10. Duration                                 : 1 h 41 min
  11. Bit rate                                 : 5 154 kb/s
  12. Width                                    : 1 920 pixels
  13. Height                                   : 1 080 pixels
  14. Display aspect ratio                     : 16:9
  15. Frame rate mode                          : Constant
  16. Frame rate                               : 23.976 (23976/1000) FPS
  17. Color space                              : YUV
  18. Chroma subsampling                       : 4:2:0
  19. Bit depth                                : 8 bits
  20. Scan type                                : Progressive
  21. Bits/(Pixel*Frame)                       : 0.104
  22. Stream size                              : 3.66 GiB (93%)
  23. Title                                    : Shifting.Gears.2018.1080p.WEB-DL.DD5.1.H.264-FGT
  24. Language                                 : English
  25. Default                                  : Yes
  26. Forced                                   : No
  27. Color range                              : Limited
  28. Color primaries                          : BT.709
  29. Transfer characteristics                 : BT.709
  30. Matrix coefficients                      : BT.709

  31. Audio
  32. ID                                       : 2
  33. Format                                   : AC-3
  34. Format/Info                              : Audio Coding 3
  35. Codec ID                                 : A_AC3
  36. Duration                                 : 1 h 41 min
  37. Bit rate mode                            : Constant
  38. Bit rate                                 : 384 kb/s
  39. Channel(s)                               : 6 channels
  40. Channel positions                        : Front: L C R, Side: L R, LFE
  41. Sampling rate                            : 48.0 kHz
  42. Frame rate                               : 31.250 FPS (1536 SPF)
  43. Bit depth                                : 16 bits
  44. Compression mode                         : Lossy
  45. Stream size                              : 279 MiB (7%)
  46. Title                                    : Shifting.Gears.2018.1080p.WEB-DL.DD5.1.H.264-FGT
  47. Language                                 : English
  48. Service kind                             : Complete Main
  49. Default                                  : Yes
  50. Forced                                   : No

  51. Text
  52. ID                                       : 3
  53. Format                                   : UTF-8
  54. Codec ID                                 : S_TEXT/UTF8
  55. Codec ID/Info                            : UTF-8 Plain Text
  56. Duration                                 : 1 h 41 min
  57. Bit rate                                 : 67 b/s
  58. Count of elements                        : 1657
  59. Stream size                              : 50.2 KiB (0%)
  60. Language                                 : English
  61. Default                                  : Yes
  62. Forced                                   : No

  63. Menu
  64. 00:00:00.000                             : en:1
  65. 00:12:38.008                             : en:2
  66. 00:23:03.591                             : en:3
  67. 00:33:28.048                             : en:4
  68. 00:43:47.667                             : en:5
  69. 00:56:10.159                             : en:6
  70. 01:08:57.384                             : en:7
  71. 01:18:11.396                             : en:8
  72. 01:30:20.792                             : en:9
  73. 01:38:32.617                             : en:10

复制代码





游客,如果您要查看本帖隐藏内容请回复
回复

使用道具 举报

跑龙套

高清币
12
金钱
16
鲜花
0
在线时间
0 小时
最后登录
2018-6-14
发表于 2018-6-13 22:25:09 | 显示全部楼层


老司机开车了 懂得上车:
http://72eq.com/portal.php?x=68210
回复 支持 反对

使用道具 举报

知名艺人

高清币
3
金钱
364
鲜花
0
在线时间
53 小时
最后登录
2018-11-4
发表于 2018-6-13 22:26:19 | 显示全部楼层
谢谢楼主分享
回复 支持 反对

使用道具 举报

天王巨星

高清币
3
金钱
3837
鲜花
0
在线时间
1700 小时
最后登录
2018-12-13
发表于 2018-6-13 22:27:40 | 显示全部楼层
每天都来中国高清论坛看看有什么电影!
回复 支持 反对

使用道具 举报

永恒神话

高清币
12104
金钱
23965
鲜花
0
在线时间
2103 小时
最后登录
2018-12-15
发表于 2018-6-13 22:28:10 | 显示全部楼层
感谢楼主分享精彩电影!
回复 支持 反对

使用道具 举报

天王巨星

高清币
4
金钱
2567
鲜花
0
在线时间
242 小时
最后登录
2018-12-15
发表于 2018-6-13 22:33:34 | 显示全部楼层
感谢楼主分享
回复 支持 反对

使用道具 举报

永恒神话

高清币
7013
金钱
26592
鲜花
0
在线时间
1656 小时
最后登录
2018-12-16
发表于 2018-6-13 22:34:47 | 显示全部楼层
感谢分享精彩好电影!!!
回复 支持 反对

使用道具 举报

金鸡奖主角

高清币
971
金钱
2475
鲜花
0
在线时间
337 小时
最后登录
2018-12-15
发表于 2018-6-13 22:34:53 | 显示全部楼层
中国高清论坛很棒!
回复 支持 反对

使用道具 举报

永恒神话

高清币
4633
金钱
18956
鲜花
0
在线时间
2083 小时
最后登录
2018-12-16
发表于 2018-6-13 23:07:49 | 显示全部楼层
谢楼主分享,有你更精彩
回复 支持 反对

使用道具 举报

永恒神话

高清币
6629
金钱
9214
鲜花
0
在线时间
859 小时
最后登录
2018-12-16
发表于 2018-6-13 23:09:40 | 显示全部楼层
楼主分享的高清电影太好了!
回复 支持 反对

使用道具 举报

懒得打字嘛,点击右侧快捷回复 【右侧内容,后台自定义】
您需要登录后才可以回帖 登录 | 立即注册

本版积分规则

QQ|手机版|小黑屋|中国高清论坛 ( 黔ICP备16007815号-1 )

GMT+8, 2018-12-16 04:28 , Processed in 0.097964 second(s), 30 queries .

Powered by Discuz! X3.4

© 2001-2017 Comsenz Inc.

快速回复 返回顶部 返回列表