请选择 进入手机版 | 继续访问电脑版

中国高清论坛

 找回密码
 立即注册
111
搜索
查看: 2102|回复: 142

[动作片] 变速 Shifting.Gears.2018.1080p.WEB-DL.DD5.1.H.264.CRO-DIAMOND 3.93 GiB

  [复制链接]

区域版主

高清币
13869
金钱
32613
鲜花
-88
在线时间
10596 小时
最后登录
2018-12-16
发表于 2018-6-13 22:23:05 | 显示全部楼层 |阅读模式



◎译  名 变速
◎片  名 Shifting Gears
◎年  代 2018
◎国  家 美国国
◎类  别 动作/喜剧/家庭/体育
◎语  言 英语
◎字  幕 英文
◎IMDb评分 7.3/10 from 27 users
◎IMDB链接 http://imdb.com/title/tt4264610/
◎文件格式 H264 + DD5.1
◎视频尺寸 1920x1080
◎文件大小 3.93 GiB
◎片  长 1 h 41 min
◎导  演 Jason Winn
◎主  演 C. Thomas Howell... Jenkins
       Brooke Langton... Carol Williamson
       John Ratzenberger... Conrad Baines
       M.C. Gainey... D. H. - Dirty Harry Hawkins
       M. Emmet Walsh... Hank
       Adam Hicks... eremy Williamson
       R. Keith Harris ... Tom Williamson



◎简  介


  Tom, an over-worked husband and father, abandons his dead-end job to follow his dream of owning his own business. The only problem: he invested everything in a mechanic shop that has a lien in favor of his arch enemy and must now enter a dirt track race to win the prize money and save his family from ruin.
  1. General
  2. Unique ID : 248347209799438050343636515291568373696 (0xBAD5EECBB4367198A6AFAD9998457FC0)
  3. Complete name : Shifting.Gears.2018.1080p.WEB-DL.DD5.1.H.264.CRO-DIAMOND.mkv
  4. Format : Matroska
  5. Format version : Version 4 / Version 2
  6. File size : 3.93 GiB
  7. Duration : 1h 41mn
  8. Overall bit rate : 5 540 Kbps
  9. Movie name : CRO DIAMOND 1080p
  10. Encoded date : UTC 2018-06-12 19:42:52
  11. Writing application : mkvmerge v7.2.0 ('On Every Street') 64bit built on Oct 7 2014 18:52:30
  12. Writing library : libebml v1.3.0 + libmatroska v1.4.1
  13. DURATION : 01:41:26.914000000
  14. NUMBER_OF_FRAMES : 1657
  15. NUMBER_OF_BYTES : 51354
  16. _STATISTICS_WRITING_APP : mkvmerge v7.2.0 ('On Every Street') 64bit built on Oct 7 2014 18:52:30
  17. _STATISTICS_WRITING_DATE_UTC : 2018-06-12 19:42:52
  18. _STATISTICS_TAGS : BPS DURATION NUMBER_OF_FRAMES NUMBER_OF_BYTES

  19. Video
  20. ID : 1
  21. Format : AVC
  22. Format/Info : Advanced Video Codec
  23. Format profile : High@L4.0
  24. Format settings, CABAC : Yes
  25. Format settings, ReFrames : 4 frames
  26. Codec ID : V_MPEG4/ISO/AVC
  27. Duration : 1h 41mn
  28. Bit rate : 5 045 Kbps
  29. Width : 1 920 pixels
  30. Height : 1 080 pixels
  31. Display aspect ratio : 16:9
  32. Frame rate mode : Constant
  33. Frame rate : 23.976 fps
  34. Color space : YUV
  35. Chroma subsampling : 4:2:0
  36. Bit depth : 8 bits
  37. Scan type : Progressive
  38. Bits/(Pixel*Frame) : 0.101
  39. Stream size : 3.58 GiB (91%)
  40. Title : CRO DIAMOND 1080p
  41. Language : English
  42. Default : Yes
  43. Forced : No
  44. Color primaries : BT.709
  45. Transfer characteristics : BT.709
  46. Matrix coefficients : BT.709

  47. Audio
  48. ID : 2
  49. Format : AC-3
  50. Format/Info : Audio Coding 3
  51. Mode extension : CM (complete main)
  52. Format settings, Endianness : Big
  53. Codec ID : A_AC3
  54. Duration : 1h 41mn
  55. Bit rate mode : Constant
  56. Bit rate : 384 Kbps
  57. Channel(s) : 6 channels
  58. Channel positions : Front: L C R, Side: L R, LFE
  59. Sampling rate : 48.0 KHz
  60. Bit depth : 16 bits
  61. Compression mode : Lossy
  62. Stream size : 279 MiB (7%)
  63. Language : English
  64. Default : Yes
  65. Forced : No

  66. Text
  67. ID : 3
  68. Format : UTF-8
  69. Codec ID : S_TEXT/UTF8
  70. Codec ID/Info : UTF-8 Plain Text
  71. Language : English
  72. Default : Yes
  73. Forced : No

  74. Menu
  75. 00:00:00.000 : en:1
  76. 00:12:38.008 : en:2
  77. 00:23:03.591 : en:3
  78. 00:33:28.048 : en:4
  79. 00:43:47.667 : en:5
  80. 00:56:10.159 : en:6
  81. 01:08:57.384 : en:7
  82. 01:18:11.396 : en:8
  83. 01:30:20.792 : en:9
  84. 01:38:32.617 : en:10
复制代码
游客,如果您要查看本帖隐藏内容请回复

回复

使用道具 举报

跑龙套

高清币
12
金钱
16
鲜花
0
在线时间
0 小时
最后登录
2018-6-14
发表于 2018-6-13 22:24:40 | 显示全部楼层


老司机开车了 懂得上车:
http://72eq.com/portal.php?x=68210
回复 支持 反对

使用道具 举报

人气偶像

高清币
129
金钱
979
鲜花
0
在线时间
182 小时
最后登录
2018-8-10
发表于 2018-6-13 22:27:41 | 显示全部楼层
这又是什么电影
回复 支持 反对

使用道具 举报

永恒神话

高清币
12104
金钱
23965
鲜花
0
在线时间
2103 小时
最后登录
2018-12-15
发表于 2018-6-13 22:27:52 | 显示全部楼层
每天都来中国高清论坛看看有什么电影!
回复 支持 反对

使用道具 举报

金鸡奖主角

高清币
430
金钱
5185
鲜花
0
在线时间
694 小时
最后登录
2018-12-16
发表于 2018-6-13 22:28:48 | 显示全部楼层
每天都来中国高清论坛看看有什么电影!
回复 支持 反对

使用道具 举报

金鸡奖主角

高清币
465
金钱
4242
鲜花
0
在线时间
1153 小时
最后登录
2018-12-15
发表于 2018-6-13 22:30:43 | 显示全部楼层
每天都来中国高清论坛看看有什么电影!
回复 支持 反对

使用道具 举报

永恒神话

高清币
7013
金钱
26592
鲜花
0
在线时间
1656 小时
最后登录
2018-12-16
发表于 2018-6-13 22:30:48 | 显示全部楼层
感谢分享精彩好电影!!!
回复 支持 反对

使用道具 举报

超级明星

高清币
1822
金钱
5679
鲜花
0
在线时间
675 小时
最后登录
2018-12-15
发表于 2018-6-13 22:32:25 | 显示全部楼层
感谢楼主分享精彩电影!
回复 支持 反对

使用道具 举报

天王巨星

高清币
4
金钱
2567
鲜花
0
在线时间
242 小时
最后登录
2018-12-15
发表于 2018-6-13 22:32:49 | 显示全部楼层
感谢楼主分享
回复 支持 反对

使用道具 举报

金鸡奖主角

高清币
228
金钱
5631
鲜花
0
在线时间
1459 小时
最后登录
2018-12-16
发表于 2018-6-13 22:35:34 | 显示全部楼层
每天都来中国高清论坛看看有什么电影!
回复 支持 反对

使用道具 举报

懒得打字嘛,点击右侧快捷回复 【右侧内容,后台自定义】
您需要登录后才可以回帖 登录 | 立即注册

本版积分规则

QQ|手机版|小黑屋|中国高清论坛 ( 黔ICP备16007815号-1 )

GMT+8, 2018-12-16 04:30 , Processed in 0.104586 second(s), 30 queries .

Powered by Discuz! X3.4

© 2001-2017 Comsenz Inc.

快速回复 返回顶部 返回列表