请选择 进入手机版 | 继续访问电脑版

中国高清论坛

 找回密码
 立即注册
111
搜索
查看: 477|回复: 54

[惊悚片] 冲出阴影 Out.Of.The.Shadows.2017.1080p.AMZN.WEBRip.DDP2.0.x264-NTG 2.87 GiB

[复制链接]

区域版主

高清币
13869
金钱
32613
鲜花
-88
在线时间
10596 小时
最后登录
2018-12-16
发表于 2018-6-13 22:40:03 | 显示全部楼层 |阅读模式


◎译  名 冲出阴影
◎片  名 Out of the Shadows
◎年  代 2018
◎国  家 澳大利亚
◎类  别 惊悚
◎语  言 英语
◎字  幕 英文
◎IMDb评分 3.7/10 from 62 users
◎IMDB链接 http://imdb.com/title/tt4866768/
◎文件格式 x264 + DDP
◎视频尺寸 1920x1080
◎文件大小 2.87 GiB
◎片  长 1 h 28 min
◎导  演 Dee McLachlan
◎主  演 Goran D. Kleut... Mr. Augusta
       Lisa Chappell... Linda Dee
       Jake Ryan... Charles Winter
       Helmut Bakaitis... Father Joe Phillips
       Kendal Rae... Katrina Hughes
       im Robison... Robert Long
       Milan Pulvermacher... Terry
 


◎简  介


  A newly married detective and his pregnant wife move into their dream home unaware of its dark history. When his wife claims their baby is being tormented by a supernatural force and seeks the help of a renegade demonologist, he must investigate the past to save his family.

  1. Video
  2. ID                                       : 1
  3. Format                                   : AVC
  4. Format/Info                              : Advanced Video Codec
  5. Format profile                           : High@L4
  6. Format settings                          : CABAC / 4 Ref Frames
  7. Format settings, CABAC                   : Yes
  8. Format settings, ReFrames                : 4 frames
  9. Codec ID                                 : V_MPEG4/ISO/AVC
  10. Duration                                 : 1 h 28 min
  11. Bit rate                                 : 4 412 kb/s
  12. Width                                    : 1 920 pixels
  13. Height                                   : 1 080 pixels
  14. Display aspect ratio                     : 16:9
  15. Frame rate mode                          : Constant
  16. Frame rate                               : 23.976 (24000/1001) FPS
  17. Color space                              : YUV
  18. Chroma subsampling                       : 4:2:0
  19. Bit depth                                : 8 bits
  20. Scan type                                : Progressive
  21. Bits/(Pixel*Frame)                       : 0.089
  22. Stream size                              : 2.73 GiB (95%)
  23. Default                                  : Yes
  24. Forced                                   : No
  25. Color range                              : Limited
  26. Color primaries                          : BT.709
  27. Transfer characteristics                 : BT.709
  28. Matrix coefficients                      : BT.709

  29. Audio
  30. ID                                       : 2
  31. Format                                   : E-AC-3
  32. Format/Info                              : Enhanced Audio Coding 3
  33. Codec ID                                 : A_EAC3
  34. Duration                                 : 1 h 28 min
  35. Bit rate mode                            : Constant
  36. Bit rate                                 : 224 kb/s
  37. Channel(s)                               : 2 channels
  38. Channel positions                        : Front: L R
  39. Sampling rate                            : 48.0 kHz
  40. Frame rate                               : 187.500 FPS (256 SPF)
  41. Compression mode                         : Lossy
  42. Stream size                              : 142 MiB (5%)
  43. Language                                 : English
  44. Service kind                             : Complete Main
  45. Default                                  : Yes
  46. Forced                                   : No

  47. Text
  48. ID                                       : 3
  49. Format                                   : UTF-8
  50. Codec ID                                 : S_TEXT/UTF8
  51. Codec ID/Info                            : UTF-8 Plain Text
  52. Duration                                 : 1 h 23 min
  53. Bit rate                                 : 42 b/s
  54. Count of elements                        : 1045
  55. Stream size                              : 26.3 KiB (0%)
  56. Title                                    : SDH
  57. Language                                 : English
  58. Default                                  : No
  59. Forced                                   : No

复制代码





游客,如果您要查看本帖隐藏内容请回复
回复

使用道具 举报

金鸡奖主角

高清币
290
金钱
3381
鲜花
0
在线时间
471 小时
最后登录
2018-12-16
发表于 2018-6-13 22:43:31 | 显示全部楼层
楼主分享的高清电影太好了!
回复 支持 反对

使用道具 举报

金鸡奖主角

高清币
371
金钱
3418
鲜花
0
在线时间
216 小时
最后登录
2018-12-15
发表于 2018-6-13 22:44:10 | 显示全部楼层
楼主分享的高清电影太好了!

回复 支持 反对

使用道具 举报

永恒神话

高清币
7013
金钱
26592
鲜花
0
在线时间
1656 小时
最后登录
2018-12-16
发表于 2018-6-13 22:52:36 | 显示全部楼层
感谢分享精彩好电影!!!
回复 支持 反对

使用道具 举报

永恒神话

高清币
4633
金钱
18956
鲜花
0
在线时间
2083 小时
最后登录
2018-12-16
发表于 2018-6-13 23:07:04 | 显示全部楼层
谢楼主分享,有你更精彩
回复 支持 反对

使用道具 举报

永恒神话

高清币
6629
金钱
9214
鲜花
0
在线时间
859 小时
最后登录
2018-12-16
发表于 2018-6-13 23:10:49 | 显示全部楼层
我看不错噢 谢谢楼主!
回复 支持 反对

使用道具 举报

超级明星

高清币
1192
金钱
7531
鲜花
0
在线时间
2120 小时
最后登录
2018-12-15
发表于 2018-6-13 23:24:47 | 显示全部楼层
中国高清论坛很棒!
回复 支持 反对

使用道具 举报

金鸡奖主角

高清币
1243
金钱
2036
鲜花
0
在线时间
145 小时
最后登录
2018-12-16
发表于 2018-6-13 23:40:16 | 显示全部楼层
我看不错噢 谢谢楼主!
回复 支持 反对

使用道具 举报

天王巨星

高清币
455
金钱
1604
鲜花
0
在线时间
260 小时
最后登录
2018-12-16
发表于 2018-6-13 23:41:38 | 显示全部楼层
感谢楼主分享精彩电影!
回复 支持 反对

使用道具 举报

人气偶像

高清币
12
金钱
1192
鲜花
0
在线时间
126 小时
最后登录
2018-12-14
发表于 2018-6-13 23:43:02 | 显示全部楼层
dfasdfadasdasdsad
回复 支持 反对

使用道具 举报

懒得打字嘛,点击右侧快捷回复 【右侧内容,后台自定义】
您需要登录后才可以回帖 登录 | 立即注册

本版积分规则

QQ|手机版|小黑屋|中国高清论坛 ( 黔ICP备16007815号-1 )

GMT+8, 2018-12-16 04:56 , Processed in 0.087589 second(s), 30 queries .

Powered by Discuz! X3.4

© 2001-2017 Comsenz Inc.

快速回复 返回顶部 返回列表