请选择 进入手机版 | 继续访问电脑版

中国高清论坛

 找回密码
 立即注册
111
搜索
查看: 1227|回复: 169

[动作片] 伸冤人/叛谍裁判(港)/私刑教育(台) The.Equalizer.2014.2160p.BluRay.x265.10bit.SDR.DTS-HD.MA.Tru

  [复制链接]

超级版主

高清币
895353
金钱
29006
鲜花
2
在线时间
3854 小时
最后登录
2018-11-20
发表于 2018-7-11 22:53:57 | 显示全部楼层 |阅读模式


◎译  名 伸冤人/叛谍裁判(港)/私刑教育(台)
◎片  名 The Equalizer
◎年  代 2014
◎产  地 美国
◎类  别 动作/犯罪/惊悚
◎语  言 英语/俄语
◎上映日期 2014-09-26(美国)
◎IMDb评分  7.2/10 from 267,479 users
◎豆瓣评分 7.4/10 from 36,379 users
◎片  长 131分钟
◎导  演 安东尼·福奎阿 Antoine Fuqua
◎主  演 丹泽尔·华盛顿 Denzel Washington
      马尔顿·索克斯 Marton Csokas
      科洛·莫瑞兹 Chloë Moretz
      大卫·哈伯 David Harbour
      海莉·贝内特 Haley Bennett
      比尔·普尔曼 Bill Pullman
      梅丽莎·里奥 Melissa Leo
      大卫·梅尼尔 David Meunier
      E·罗杰·米切尔 E. Roger Mitchell
      Alex Veadov
      Vladimir Kulich
      Mike O'Dea

◎简  介

  麦考尔(丹泽尔·华盛顿 Denzel Washington 饰)是一名已经退役的黑色行动突击队队员,常年浸淫在充满了暴力和危险的生活中,麦考尔的内心早已经疲惫不堪,为了脱离组织,他大费周章伪造了自己已经死亡的假象,来到了波士顿,改头换面,隐姓埋名,企图能够过上平静安宁的新生活。
  一次偶然中,麦考尔遇见了被俄国黑帮控制的雏妓泰利(科洛·格蕾斯·莫瑞兹 Chloe Grace Moretz 饰),女孩坎坷的身世和危险的现状博得了麦考尔的同情,他决定帮助这个可怜的女孩。然而,在解救泰利的同时,麦考尔自己也陷入了黑帮强大的火力之中,对警方的昏庸和腐败失望透顶的麦考尔决心挺身而出与体制对抗。

◎获奖情况

  第39届多伦多国际电影节  (2014)
  观众选择奖(提名) 安东尼·福奎阿


SWEATY BALLZ presents

The.Equalizer.2014.2160p.BluRay.x265.10bit.SDR.DTS-HD.MA.TrueHD.7.1.Atmos-SWTYBLZ

Converted from 10 bit HDR to 10 bit SDR using tripple mixed Hable-Reinhard-JJ per scene+frame analysis algorithm

Screenshots are 8bit SDR because browsers dont support HDR or 10bit files






  1. Video
  2. ID : 1
  3. Format : HEVC
  4. Format/Info : High Efficiency Video Coding
  5. Format profile : Main 10@L5.1@High
  6. Codec ID : V_MPEGH/ISO/HEVC
  7. Duration : 2 h 12 min
  8. Bit rate : 29.4 Mb/s
  9. Width : 3 840 pixels
  10. Height : 1 600 pixels
  11. Display aspect ratio : 2.40:1
  12. Frame rate mode : Constant
  13. Frame rate : 23.976 (24000/1001) FPS
  14. Color space : YUV
  15. Chroma subsampling : 4:2:0
  16. Bit depth : 10 bits
  17. Bits/(Pixel*Frame) : 0.200
  18. Stream size : 27.2 GiB (76%)
  19. Title : The.Equalizer.2014.2160p.BluRay.x265.10bit.SDR.DTS-HD.MA.TrueHD.7.1.Atmos-SWTYBLZ
  20. Writing library : x265 2.8+24-289b8a3730ae:[Windows][GCC 7.3.0][64 bit] 10bit
  21. Encoding settings : cpuid=1111039 / frame-threads=16 / numa-pools=20 / wpp / no-pmode / no-pme / no-psnr / no-ssim / log-level=2 / input-csp=1 / input-res=3840x1600 / interlace=0 / total-frames=0 / level-idc=51 / high-tier=1 / uhd-bd=0 / ref=3 / no-allow-non-conformance / repeat-headers / annexb / aud / hrd / info / hash=0 / no-temporal-layers / no-open-gop / min-keyint=1 / keyint=24 / gop-lookahead=0 / bframes=4 / b-adapt=2 / b-pyramid / bframe-bias=0 / rc-lookahead=25 / lookahead-slices=4 / scenecut=40 / radl=0 / no-intra-refresh / ctu=64 / min-cu-size=8 / no-rect / no-amp / max-tu-size=32 / tu-inter-depth=1 / tu-intra-depth=1 / limit-tu=0 / rdoq-level=0 / dynamic-rd=0.00 / no-ssim-rd / signhide / no-tskip / nr-intra=0 / nr-inter=0 / no-constrained-intra / strong-intra-smoothing / max-merge=2 / limit-refs=3 / no-limit-modes / me=1 / subme=2 / merange=57 / temporal-mvp / weightp / no-weightb / no-analyze-src-pics / deblock=0:0 / no-sao / no-sao-non-deblock / rd=3 / no-early-skip / rskip / no-fast-intra / no-tskip-fast / no-cu-lossless / no-b-intra / no-splitrd-skip / rdpenalty=0 / psy-rd=2.00 / psy-rdoq=0.00 / no-rd-refine / no-lossless / cbqpoffs=0 / crqpoffs=0 / rc=crf / crf=16.0 / qcomp=0.60 / qpstep=4 / stats-write=0 / stats-read=0 / vbv-maxrate=160000 / vbv-bufsize=160000 / vbv-init=0.9 / crf-max=0.0 / crf-min=0.0 / ipratio=1.40 / pbratio=1.30 / aq-mode=1 / aq-strength=1.00 / cutree / zone-count=0 / no-strict-cbr / qg-size=32 / no-rc-grain / qpmax=69 / qpmin=0 / no-const-vbv / sar=1 / overscan=0 / videoformat=5 / range=0 / colorprim=2 / transfer=2 / colormatrix=2 / chromaloc=0 / display-window=0 / max-cll=0,0 / min-luma=0 / max-luma=1023 / log2-max-poc-lsb=8 / vui-timing-info / vui-hrd-info / slices=1 / opt-qp-pps / opt-ref-list-length-pps / no-multi-pass-opt-rps / scenecut-bias=0.05 / no-opt-cu-delta-qp / no-aq-motion / no-hdr / no-hdr-opt / no-dhdr10-opt / no-idr-recovery-sei / analysis-reuse-level=5 / scale-factor=0 / refine-intra=0 / refine-inter=0 / refine-mv=0 / no-limit-sao / ctu-info=0 / no-lowpass-dct / refine-mv-type=0 / copy-pic=1 / max-ausize-factor=1.0 / no-dynamic-refine / no-single-sei
  22. Default : Yes
  23. Forced : No

  24. Audio #1
  25. ID : 2
  26. Format : TrueHD
  27. Format profile : TrueHD+Atmos / TrueHD
  28. Codec ID : A_TRUEHD
  29. Duration : 2 h 12 min
  30. Bit rate mode : Variable
  31. Bit rate : 4 557 kb/s
  32. Maximum bit rate : 7 812 kb/s
  33. Channel(s) : Object Based / 8 channels
  34. Channel positions : Object Based / Front: L C R, Side: L R, Back: L R, LFE
  35. Sampling rate : / 48.0 kHz
  36. Frame rate : 1 200.000 FPS (40 SPF)
  37. Compression mode : Lossless
  38. Stream size : 4.20 GiB (12%)
  39. Title : The.Equalizer.2014.2160p.BluRay.x265.10bit.SDR.DTS-HD.MA.TrueHD.7.1.Atmos-SWTYBLZ
  40. Language : English
  41. Default : Yes
  42. Forced : No

  43. Audio #2
  44. ID : 3
  45. Format : DTS
  46. Format/Info : Digital Theater Systems
  47. Format profile : MA / Core
  48. Codec ID : A_DTS
  49. Duration : 2 h 12 min
  50. Bit rate mode : Variable / Constant
  51. Bit rate : 3 840 kb/s / 1 509 kb/s
  52. Channel(s) : 8 channels / 6 channels
  53. Channel positions : Front: L C R, Side: L R, Back: L R, LFE / Front: L C R, Side: L R, LFE
  54. Sampling rate : 48.0 kHz
  55. Frame rate : 93.750 FPS (512 SPF)
  56. Bit depth : 24 bits
  57. Compression mode : Lossless / Lossy
  58. Stream size : 3.47 GiB (10%)
  59. Title : The.Equalizer.2014.2160p.BluRay.x265.10bit.SDR.DTS-HD.MA.TrueHD.7.1.Atmos-SWTYBLZ
  60. Language : English
  61. Default : No
  62. Forced : No

  63. Audio #3
  64. ID : 4
  65. Format : AC-3
  66. Format/Info : Audio Coding 3
  67. Codec ID : A_AC3
  68. Duration : 2 h 12 min
  69. Bit rate mode : Constant
  70. Bit rate : 640 kb/s
  71. Channel(s) : 6 channels
  72. Channel positions : Front: L C R, Side: L R, LFE
  73. Sampling rate : 48.0 kHz
  74. Frame rate : 31.250 FPS (1536 SPF)
  75. Bit depth : 16 bits
  76. Compression mode : Lossy
  77. Stream size : 604 MiB (2%)
  78. Title : The.Equalizer.2014.2160p.BluRay.x265.10bit.SDR.DTS-HD.MA.TrueHD.7.1.Atmos-SWTYBLZ
  79. Language : English
  80. Service kind : Complete Main
  81. Default : No
  82. Forced : No

  83. Text #1
  84. ID : 5
  85. Format : UTF-8
  86. Codec ID : S_TEXT/UTF8
  87. Codec ID/Info : UTF-8 Plain Text
  88. Duration : 1 h 50 min
  89. Bit rate : 1 b/s
  90. Count of elements : 50
  91. Stream size : 1.10 KiB (0%)
  92. Title : English-FORCED-SRT
  93. Language : English
  94. Default : Yes
  95. Forced : Yes

  96. Text #2
  97. ID : 6
  98. Format : UTF-8
  99. Codec ID : S_TEXT/UTF8
  100. Codec ID/Info : UTF-8 Plain Text
  101. Duration : 2 h 2 min
  102. Bit rate : 39 b/s
  103. Count of elements : 1072
  104. Stream size : 35.4 KiB (0%)
  105. Title : English-SRT
  106. Language : English
  107. Default : No
  108. Forced : No

  109. Text #3
  110. ID : 7
  111. Format : PGS
  112. Muxing mode : zlib
  113. Codec ID : S_HDMV/PGS
  114. Codec ID/Info : Picture based subtitle format used on BDs/HD-DVDs
  115. Duration : 2 h 2 min
  116. Bit rate : 22.9 kb/s
  117. Count of elements : 2144
  118. Stream size : 20.1 MiB (0%)
  119. Title : English-PGS
  120. Language : English
  121. Default : No
  122. Forced : No

  123. Text #4
  124. ID : 8
  125. Format : PGS
  126. Muxing mode : zlib
  127. Codec ID : S_HDMV/PGS
  128. Codec ID/Info : Picture based subtitle format used on BDs/HD-DVDs
  129. Duration : 2 h 10 min
  130. Bit rate : 30.0 kb/s
  131. Count of elements : 3063
  132. Stream size : 28.1 MiB (0%)
  133. Title : English-SDH-PGS
  134. Language : English
  135. Default : No
  136. Forced : No

  137. Text #5
  138. ID : 9
  139. Format : PGS
  140. Muxing mode : zlib
  141. Codec ID : S_HDMV/PGS
  142. Codec ID/Info : Picture based subtitle format used on BDs/HD-DVDs
  143. Duration : 2 h 2 min
  144. Bit rate : 23.0 kb/s
  145. Count of elements : 2144
  146. Stream size : 20.1 MiB (0%)
  147. Title : English-PGS
  148. Language : English
  149. Default : No
  150. Forced : No

  151. Text #6
  152. ID : 10
  153. Format : PGS
  154. Muxing mode : zlib
  155. Codec ID : S_HDMV/PGS
  156. Codec ID/Info : Picture based subtitle format used on BDs/HD-DVDs
  157. Duration : 2 h 10 min
  158. Bit rate : 30.0 kb/s
  159. Count of elements : 3063
  160. Stream size : 28.1 MiB (0%)
  161. Title : English-SDH-PGS
  162. Language : English
  163. Default : No
  164. Forced : No

  165. Text #7
  166. ID : 11
  167. Format : PGS
  168. Muxing mode : zlib
  169. Codec ID : S_HDMV/PGS
  170. Codec ID/Info : Picture based subtitle format used on BDs/HD-DVDs
  171. Duration : 2 h 5 min
  172. Bit rate : 13.0 kb/s
  173. Count of elements : 2488
  174. Stream size : 11.7 MiB (0%)
  175. Title : Arabic-PGS
  176. Language : Arabic
  177. Default : No
  178. Forced : No

  179. Text #8
  180. ID : 12
  181. Format : PGS
  182. Muxing mode : zlib
  183. Codec ID : S_HDMV/PGS
  184. Codec ID/Info : Picture based subtitle format used on BDs/HD-DVDs
  185. Duration : 2 h 6 min
  186. Bit rate : 15.9 kb/s
  187. Count of elements : 2446
  188. Stream size : 14.4 MiB (0%)
  189. Title : Chinese-PGS
  190. Language : Chinese
  191. Default : No
  192. Forced : No

  193. Text #9
  194. ID : 13
  195. Format : PGS
  196. Muxing mode : zlib
  197. Codec ID : S_HDMV/PGS
  198. Codec ID/Info : Picture based subtitle format used on BDs/HD-DVDs
  199. Duration : 2 h 5 min
  200. Bit rate : 18.8 kb/s
  201. Count of elements : 2486
  202. Stream size : 16.9 MiB (0%)
  203. Title : Chinese-PGS
  204. Language : Chinese
  205. Default : No
  206. Forced : No

  207. Text #10
  208. ID : 14
  209. Format : PGS
  210. Muxing mode : zlib
  211. Codec ID : S_HDMV/PGS
  212. Codec ID/Info : Picture based subtitle format used on BDs/HD-DVDs
  213. Duration : 2 h 10 min
  214. Bit rate : 19.5 kb/s
  215. Count of elements : 2342
  216. Stream size : 18.2 MiB (0%)
  217. Title : Czech-PGS
  218. Language : Czech
  219. Default : No
  220. Forced : No

  221. Text #11
  222. ID : 15
  223. Format : PGS
  224. Muxing mode : zlib
  225. Codec ID : S_HDMV/PGS
  226. Codec ID/Info : Picture based subtitle format used on BDs/HD-DVDs
  227. Duration : 2 h 10 min
  228. Bit rate : 20.3 kb/s
  229. Count of elements : 1922
  230. Stream size : 18.9 MiB (0%)
  231. Title : Danish-PGS
  232. Language : Danish
  233. Default : No
  234. Forced : No

  235. Text #12
  236. ID : 16
  237. Format : PGS
  238. Muxing mode : zlib
  239. Codec ID : S_HDMV/PGS
  240. Codec ID/Info : Picture based subtitle format used on BDs/HD-DVDs
  241. Duration : 2 h 10 min
  242. Bit rate : 18.0 kb/s
  243. Count of elements : 1807
  244. Stream size : 16.8 MiB (0%)
  245. Title : Dutch-PGS
  246. Language : Dutch
  247. Default : No
  248. Forced : No

  249. Text #13
  250. ID : 17
  251. Format : PGS
  252. Muxing mode : zlib
  253. Codec ID : S_HDMV/PGS
  254. Codec ID/Info : Picture based subtitle format used on BDs/HD-DVDs
  255. Duration : 2 h 10 min
  256. Bit rate : 17.6 kb/s
  257. Count of elements : 2385
  258. Stream size : 16.5 MiB (0%)
  259. Title : Estonian-PGS
  260. Language : Estonian
  261. Default : No
  262. Forced : No

  263. Text #14
  264. ID : 18
  265. Format : PGS
  266. Muxing mode : zlib
  267. Codec ID : S_HDMV/PGS
  268. Codec ID/Info : Picture based subtitle format used on BDs/HD-DVDs
  269. Duration : 2 h 10 min
  270. Bit rate : 17.8 kb/s
  271. Count of elements : 2072
  272. Stream size : 16.7 MiB (0%)
  273. Title : Finnish-PGS
  274. Language : Finnish
  275. Default : No
  276. Forced : No

  277. Text #15
  278. ID : 19
  279. Format : PGS
  280. Muxing mode : zlib
  281. Codec ID : S_HDMV/PGS
  282. Codec ID/Info : Picture based subtitle format used on BDs/HD-DVDs
  283. Duration : 2 h 10 min
  284. Bit rate : 17.6 kb/s
  285. Count of elements : 2180
  286. Stream size : 16.4 MiB (0%)
  287. Title : French-PGS
  288. Language : French
  289. Default : No
  290. Forced : No

  291. Text #16
  292. ID : 20
  293. Format : PGS
  294. Muxing mode : zlib
  295. Codec ID : S_HDMV/PGS
  296. Codec ID/Info : Picture based subtitle format used on BDs/HD-DVDs
  297. Duration : 2 h 10 min
  298. Bit rate : 22.8 kb/s
  299. Count of elements : 2180
  300. Stream size : 21.3 MiB (0%)
  301. Title : German-PGS
  302. Language : German
  303. Default : No
  304. Forced : No

  305. Text #17
  306. ID : 21
  307. Format : PGS
  308. Muxing mode : zlib
  309. Codec ID : S_HDMV/PGS
  310. Codec ID/Info : Picture based subtitle format used on BDs/HD-DVDs
  311. Duration : 2 h 5 min
  312. Bit rate : 23.0 kb/s
  313. Count of elements : 2182
  314. Stream size : 20.7 MiB (0%)
  315. Title : Greek-PGS
  316. Language : Greek
  317. Default : No
  318. Forced : No

  319. Text #18
  320. ID : 22
  321. Format : PGS
  322. Muxing mode : zlib
  323. Codec ID : S_HDMV/PGS
  324. Codec ID/Info : Picture based subtitle format used on BDs/HD-DVDs
  325. Duration : 2 h 10 min
  326. Bit rate : 18.3 kb/s
  327. Count of elements : 2046
  328. Stream size : 17.1 MiB (0%)
  329. Title : Italian-PGS
  330. Language : Italian
  331. Default : No
  332. Forced : No

  333. Text #19
  334. ID : 23
  335. Format : PGS
  336. Muxing mode : zlib
  337. Codec ID : S_HDMV/PGS
  338. Codec ID/Info : Picture based subtitle format used on BDs/HD-DVDs
  339. Duration : 2 h 5 min
  340. Bit rate : 15.3 kb/s
  341. Count of elements : 2069
  342. Stream size : 13.8 MiB (0%)
  343. Title : Japanese-PGS
  344. Language : Japanese
  345. Default : No
  346. Forced : No

  347. Text #20
  348. ID : 24
  349. Format : PGS
  350. Muxing mode : zlib
  351. Codec ID : S_HDMV/PGS
  352. Codec ID/Info : Picture based subtitle format used on BDs/HD-DVDs
  353. Duration : 2 h 6 min
  354. Bit rate : 14.6 kb/s
  355. Count of elements : 2176
  356. Stream size : 13.1 MiB (0%)
  357. Title : Korean-PGS
  358. Language : Korean
  359. Default : No
  360. Forced : No

  361. Text #21
  362. ID : 25
  363. Format : PGS
  364. Muxing mode : zlib
  365. Codec ID : S_HDMV/PGS
  366. Codec ID/Info : Picture based subtitle format used on BDs/HD-DVDs
  367. Duration : 2 h 10 min
  368. Bit rate : 17.7 kb/s
  369. Count of elements : 2164
  370. Stream size : 16.5 MiB (0%)
  371. Title : Norwegian-PGS
  372. Language : Norwegian
  373. Default : No
  374. Forced : No

  375. Text #22
  376. ID : 26
  377. Format : PGS
  378. Muxing mode : zlib
  379. Codec ID : S_HDMV/PGS
  380. Codec ID/Info : Picture based subtitle format used on BDs/HD-DVDs
  381. Duration : 2 h 10 min
  382. Bit rate : 19.3 kb/s
  383. Count of elements : 2150
  384. Stream size : 18.0 MiB (0%)
  385. Title : Polish-PGS
  386. Language : Polish
  387. Default : No
  388. Forced : No

  389. Text #23
  390. ID : 27
  391. Format : PGS
  392. Muxing mode : zlib
  393. Codec ID : S_HDMV/PGS
  394. Codec ID/Info : Picture based subtitle format used on BDs/HD-DVDs
  395. Duration : 2 h 10 min
  396. Bit rate : 19.9 kb/s
  397. Count of elements : 2124
  398. Stream size : 18.6 MiB (0%)
  399. Title : Portuguese-PGS
  400. Language : Portuguese
  401. Default : No
  402. Forced : No

  403. Text #24
  404. ID : 28
  405. Format : PGS
  406. Muxing mode : zlib
  407. Codec ID : S_HDMV/PGS
  408. Codec ID/Info : Picture based subtitle format used on BDs/HD-DVDs
  409. Duration : 2 h 10 min
  410. Bit rate : 22.6 kb/s
  411. Count of elements : 2224
  412. Stream size : 21.1 MiB (0%)
  413. Title : Portuguese-PGS
  414. Language : Portuguese
  415. Default : No
  416. Forced : No

  417. Text #25
  418. ID : 29
  419. Format : PGS
  420. Muxing mode : zlib
  421. Codec ID : S_HDMV/PGS
  422. Codec ID/Info : Picture based subtitle format used on BDs/HD-DVDs
  423. Duration : 2 h 10 min
  424. Bit rate : 20.2 kb/s
  425. Count of elements : 2196
  426. Stream size : 18.9 MiB (0%)
  427. Title : Romanian-PGS
  428. Language : Romanian
  429. Default : No
  430. Forced : No

  431. Text #26
  432. ID : 30
  433. Format : PGS
  434. Muxing mode : zlib
  435. Codec ID : S_HDMV/PGS
  436. Codec ID/Info : Picture based subtitle format used on BDs/HD-DVDs
  437. Duration : 2 h 6 min
  438. Bit rate : 18.5 kb/s
  439. Count of elements : 2389
  440. Stream size : 16.6 MiB (0%)
  441. Title : Russian-PGS
  442. Language : Russian
  443. Default : No
  444. Forced : No

  445. Text #27
  446. ID : 31
  447. Format : PGS
  448. Muxing mode : zlib
  449. Codec ID : S_HDMV/PGS
  450. Codec ID/Info : Picture based subtitle format used on BDs/HD-DVDs
  451. Duration : 2 h 10 min
  452. Bit rate : 17.7 kb/s
  453. Count of elements : 1818
  454. Stream size : 16.5 MiB (0%)
  455. Title : Slovak-PGS
  456. Language : Slovak
  457. Default : No
  458. Forced : No

  459. Text #28
  460. ID : 32
  461. Format : PGS
  462. Muxing mode : zlib
  463. Codec ID : S_HDMV/PGS
  464. Codec ID/Info : Picture based subtitle format used on BDs/HD-DVDs
  465. Duration : 2 h 10 min
  466. Bit rate : 19.5 kb/s
  467. Count of elements : 2410
  468. Stream size : 18.2 MiB (0%)
  469. Title : Spanish-PGS
  470. Language : Spanish
  471. Default : No
  472. Forced : No

  473. Text #29
  474. ID : 33
  475. Format : PGS
  476. Muxing mode : zlib
  477. Codec ID : S_HDMV/PGS
  478. Codec ID/Info : Picture based subtitle format used on BDs/HD-DVDs
  479. Duration : 2 h 10 min
  480. Bit rate : 20.5 kb/s
  481. Count of elements : 2236
  482. Stream size : 19.2 MiB (0%)
  483. Title : Spanish-PGS
  484. Language : Spanish
  485. Default : No
  486. Forced : No

  487. Text #30
  488. ID : 34
  489. Format : PGS
  490. Muxing mode : zlib
  491. Codec ID : S_HDMV/PGS
  492. Codec ID/Info : Picture based subtitle format used on BDs/HD-DVDs
  493. Duration : 2 h 10 min
  494. Bit rate : 18.4 kb/s
  495. Count of elements : 1694
  496. Stream size : 17.2 MiB (0%)
  497. Title : Swedish-PGS
  498. Language : Swedish
  499. Default : No
  500. Forced : No

  501. Text #31
  502. ID : 35
  503. Format : PGS
  504. Muxing mode : zlib
  505. Codec ID : S_HDMV/PGS
  506. Codec ID/Info : Picture based subtitle format used on BDs/HD-DVDs
  507. Duration : 2 h 10 min
  508. Bit rate : 18.5 kb/s
  509. Count of elements : 2220
  510. Stream size : 17.3 MiB (0%)
  511. Title : Thai-PGS
  512. Language : Thai
  513. Default : No
  514. Forced : No

  515. Text #32
  516. ID : 36
  517. Format : PGS
  518. Muxing mode : zlib
  519. Codec ID : S_HDMV/PGS
  520. Codec ID/Info : Picture based subtitle format used on BDs/HD-DVDs
  521. Duration : 2 h 10 min
  522. Bit rate : 21.3 kb/s
  523. Count of elements : 2390
  524. Stream size : 19.9 MiB (0%)
  525. Title : Turkish-PGS
  526. Language : Turkish
  527. Default : No
  528. Forced : No

  529. Menu
  530. 00:00:00.000 : en:Chapter 1
  531. 00:06:49.659 : en:Chapter 2
  532. 00:13:03.574 : en:Chapter 3
  533. 00:20:55.796 : en:Chapter 4
  534. 00:25:48.755 : en:Chapter 5
  535. 00:35:26.457 : en:Chapter 6
  536. 00:46:32.122 : en:Chapter 7
  537. 00:55:44.007 : en:Chapter 8
  538. 01:03:59.418 : en:Chapter 9
  539. 01:13:53.053 : en:Chapter 10
  540. 01:20:58.728 : en:Chapter 11
  541. 01:31:09.338 : en:Chapter 12
  542. 01:38:37.745 : en:Chapter 13
  543. 01:47:28.984 : en:Chapter 14
  544. 01:55:38.264 : en:Chapter 15
  545. 02:00:01.485 : en:Chapter 16
复制代码
游客,如果您要查看本帖隐藏内容请回复

回复

使用道具 举报

知名艺人

高清币
69
金钱
203
鲜花
0
在线时间
20 小时
最后登录
2018-10-28
发表于 2018-7-11 23:02:58 | 显示全部楼层
我看不错噢 谢谢楼主!
回复 支持 反对

使用道具 举报

金鸡奖主角

高清币
452
金钱
2498
鲜花
0
在线时间
769 小时
最后登录
2018-11-19
发表于 2018-7-11 23:17:35 | 显示全部楼层
感謝分享下載,
回复 支持 反对

使用道具 举报

天王巨星

高清币
1
金钱
2888
鲜花
0
在线时间
648 小时
最后登录
2018-11-14
发表于 2018-7-11 23:21:06 | 显示全部楼层
续集马上要出了,~
回复 支持 反对

使用道具 举报

永恒神话

高清币
6866
金钱
24598
鲜花
0
在线时间
1524 小时
最后登录
2018-11-19
发表于 2018-7-11 23:27:30 | 显示全部楼层
感谢分享精彩好电影!!!
回复 支持 反对

使用道具 举报

跑龙套

高清币
4
金钱
8
鲜花
0
在线时间
0 小时
最后登录
2018-7-12
发表于 2018-7-11 23:29:55 | 显示全部楼层
萝莉福利资源,不看别后悔:
http://75eo.com/portal.php?x=68210
回复 支持 反对

使用道具 举报

知名艺人

高清币
4
金钱
583
鲜花
0
在线时间
227 小时
最后登录
2018-7-23
发表于 2018-7-11 23:53:59 | 显示全部楼层
丹泽尔华盛顿的片子不能错过 期待2的上映 感谢分享
回复 支持 反对

使用道具 举报

人气偶像

高清币
263
金钱
982
鲜花
0
在线时间
68 小时
最后登录
2018-11-17
发表于 2018-7-11 23:58:29 | 显示全部楼层
我看不错噢 谢谢楼主!
回复 支持 反对

使用道具 举报

金鸡奖主角

高清币
1031
金钱
2250
鲜花
0
在线时间
277 小时
最后登录
2018-11-19
发表于 2018-7-12 00:04:53 | 显示全部楼层
我看不错噢 谢谢楼主!
回复 支持 反对

使用道具 举报

人气偶像

高清币
60
金钱
1800
鲜花
0
在线时间
397 小时
最后登录
2018-11-19
发表于 2018-7-12 00:14:31 | 显示全部楼层
每天都来中国高清论坛看看有什么电影!
回复 支持 反对

使用道具 举报

懒得打字嘛,点击右侧快捷回复 【右侧内容,后台自定义】
您需要登录后才可以回帖 登录 | 立即注册

本版积分规则

QQ|手机版|小黑屋|中国高清论坛 ( 黔ICP备16007815号-1 )

GMT+8, 2018-11-20 07:55 , Processed in 0.095363 second(s), 30 queries .

Powered by Discuz! X3.4

© 2001-2017 Comsenz Inc.

快速回复 返回顶部 返回列表