请选择 进入手机版 | 继续访问电脑版

中国高清论坛

 找回密码
 立即注册
111
搜索
查看: 1471|回复: 140

[动作片] 狂暴巨兽/末日困兽战(港)/毁灭大作战(台)/狂暴世纪浩劫/狂暴/怪兽大破坏Rampage.2018.2160p.BluRay.x265.10bit.SDR.D

  [复制链接]

超级版主

高清币
895457
金钱
29006
鲜花
2
在线时间
3859 小时
最后登录
2018-11-20
发表于 2018-7-11 22:59:38 | 显示全部楼层 |阅读模式



◎译  名 狂暴巨兽/末日困兽战(港)/毁灭大作战(台)/狂暴:世纪浩劫/狂暴/怪兽大破坏
◎片  名 Rampage
◎年  代 2018
◎产  地 美国
◎类  别 动作/科幻/冒险
◎语  言 英语
◎上映日期 2018-04-13(美国)/2018-04-13(中国大陆)
◎IMDb评分  6.3/10 from 45,601 users
◎IMDb链接  http://www.imdb.com/title/tt2231461/
◎豆瓣评分 6.6/10 from 68,053 users
◎豆瓣链接 https://movie.douban.com/subject/26430636/
◎片  长 107分钟
◎导  演 布拉德·佩顿 Brad Peyton
◎主  演 道恩·强森 Dwayne Johnson
      娜奥米·哈里斯 Naomie Harris
      杰弗里·迪恩·摩根 Jeffrey Dean Morgan
      玛琳·阿克曼 Malin Akerman
      杰克·莱西 Jake Lacy
      乔·曼根尼罗 Joe Manganiello
      玛丽·谢尔顿 Marley Shelton
      P·J·伯恩 P.J. Byrne
      德米垂斯·格罗斯 Demetrius Grosse
      杰克·奎德 Jack Quaid
      布里安·希尔 Breanne Hill
      马特·杰拉德 Matt Gerald
      李威尹 Will Yun Lee
      尤里亚·费伯 Urijah Faber
      布鲁斯·布莱克希尔 Bruce Blackshear
      杰森·莱尔斯 Jason Liles
      马克·威尔斯 Mac Wells
      阿莉莎·布鲁克 Allyssa Brooke
      亚当·希泰凯尔 Adam Sztykiel
      加里·维克斯 Gary Weeks
      阿诺德·陈 Arnold Chun

◎简  介

  巨石强森饰演的灵长类动物学家一直与人类保持距离, 却跟极为聪明的银背大猩猩乔治有着深厚的感情。但是一次基因实验出错, 让这只温驯的大猩猩变成狂怒难驯的庞然巨兽。更可怕的是, 其他动物也发生了同样基因异变。他必须阻止这场全球性的灾难, 更重要是要拯救他的好友乔治。








  1. Video
  2. ID : 1
  3. Format : HEVC
  4. Format/Info : High Efficiency Video Coding
  5. Format profile : Main 10@L5.1@High
  6. Codec ID : V_MPEGH/ISO/HEVC
  7. Duration : 1 h 47 min
  8. Bit rate : 61.3 Mb/s
  9. Width : 3 840 pixels
  10. Height : 1 600 pixels
  11. Display aspect ratio : 2.40:1
  12. Frame rate mode : Constant
  13. Frame rate : 23.976 (24000/1001) FPS
  14. Color space : YUV
  15. Chroma subsampling : 4:2:0
  16. Bit depth : 10 bits
  17. Bits/(Pixel*Frame) : 0.416
  18. Stream size : 46.0 GiB (89%)
  19. Title : Rampage.2018.2160p.BluRay.x265.10bit.SDR.DTS-HD.MA.TrueHD.7.1.Atmos-SWTYBLZ
  20. Writing library : x265 2.8+24-289b8a3730ae:[Windows][GCC 7.3.0][64 bit] 10bit
  21. Encoding settings : cpuid=1111039 / frame-threads=16 / numa-pools=24,24,24,24 / wpp / no-pmode / no-pme / no-psnr / no-ssim / log-level=2 / input-csp=1 / input-res=3840x1600 / interlace=0 / total-frames=0 / level-idc=51 / high-tier=1 / uhd-bd=0 / ref=3 / no-allow-non-conformance / repeat-headers / annexb / aud / hrd / info / hash=0 / no-temporal-layers / no-open-gop / min-keyint=1 / keyint=24 / gop-lookahead=0 / bframes=4 / b-adapt=2 / b-pyramid / bframe-bias=0 / rc-lookahead=25 / lookahead-slices=4 / scenecut=40 / radl=0 / no-intra-refresh / ctu=64 / min-cu-size=8 / no-rect / no-amp / max-tu-size=32 / tu-inter-depth=1 / tu-intra-depth=1 / limit-tu=0 / rdoq-level=0 / dynamic-rd=0.00 / no-ssim-rd / signhide / no-tskip / nr-intra=0 / nr-inter=0 / no-constrained-intra / strong-intra-smoothing / max-merge=2 / limit-refs=3 / no-limit-modes / me=1 / subme=2 / merange=57 / temporal-mvp / weightp / no-weightb / no-analyze-src-pics / deblock=0:0 / no-sao / no-sao-non-deblock / rd=3 / no-early-skip / rskip / no-fast-intra / no-tskip-fast / no-cu-lossless / no-b-intra / no-splitrd-skip / rdpenalty=0 / psy-rd=2.00 / psy-rdoq=0.00 / no-rd-refine / no-lossless / cbqpoffs=0 / crqpoffs=0 / rc=crf / crf=16.0 / qcomp=0.60 / qpstep=4 / stats-write=0 / stats-read=0 / vbv-maxrate=160000 / vbv-bufsize=160000 / vbv-init=0.9 / crf-max=0.0 / crf-min=0.0 / ipratio=1.40 / pbratio=1.30 / aq-mode=1 / aq-strength=1.00 / cutree / zone-count=0 / no-strict-cbr / qg-size=32 / no-rc-grain / qpmax=69 / qpmin=0 / no-const-vbv / sar=1 / overscan=0 / videoformat=5 / range=0 / colorprim=2 / transfer=2 / colormatrix=2 / chromaloc=0 / display-window=0 / max-cll=0,0 / min-luma=0 / max-luma=1023 / log2-max-poc-lsb=8 / vui-timing-info / vui-hrd-info / slices=1 / opt-qp-pps / opt-ref-list-length-pps / no-multi-pass-opt-rps / scenecut-bias=0.05 / no-opt-cu-delta-qp / no-aq-motion / no-hdr / no-hdr-opt / no-dhdr10-opt / no-idr-recovery-sei / analysis-reuse-level=5 / scale-factor=0 / refine-intra=0 / refine-inter=0 / refine-mv=0 / no-limit-sao / ctu-info=0 / no-lowpass-dct / refine-mv-type=0 / copy-pic=1 / max-ausize-factor=1.0 / no-dynamic-refine / no-single-sei
  22. Default : Yes
  23. Forced : No

  24. Audio #1
  25. ID : 2
  26. Format : TrueHD
  27. Format profile : TrueHD+Atmos / TrueHD
  28. Codec ID : A_TRUEHD
  29. Duration : 1 h 47 min
  30. Bit rate mode : Variable
  31. Bit rate : 3 279 kb/s
  32. Maximum bit rate : 5 205 kb/s
  33. Channel(s) : Object Based / 8 channels
  34. Channel positions : Object Based / Front: L C R, Side: L R, Back: L R, LFE
  35. Sampling rate : / 48.0 kHz
  36. Frame rate : 1 200.000 FPS (40 SPF)
  37. Compression mode : Lossless
  38. Stream size : 2.46 GiB (5%)
  39. Title : Rampage.2018.2160p.BluRay.x265.10bit.SDR.DTS-HD.MA.TrueHD.7.1.Atmos-SWTYBLZ
  40. Language : English
  41. Default : Yes
  42. Forced : No

  43. Audio #2
  44. ID : 3
  45. Format : DTS
  46. Format/Info : Digital Theater Systems
  47. Format profile : MA / Core
  48. Codec ID : A_DTS
  49. Duration : 1 h 47 min
  50. Bit rate mode : Variable / Constant
  51. Bit rate : 4 013 kb/s / 1 509 kb/s
  52. Channel(s) : 8 channels / 6 channels
  53. Channel positions : Front: L C R, Side: L R, Back: L R, LFE / Front: L C R, Side: L R, LFE
  54. Sampling rate : 48.0 kHz
  55. Frame rate : 93.750 FPS (512 SPF)
  56. Bit depth : 24 bits
  57. Compression mode : Lossless / Lossy
  58. Stream size : 3.01 GiB (6%)
  59. Title : Rampage.2018.2160p.BluRay.x265.10bit.SDR.DTS-HD.MA.TrueHD.7.1.Atmos-SWTYBLZ
  60. Language : English
  61. Default : No
  62. Forced : No

  63. Audio #3
  64. ID : 4
  65. Format : AC-3
  66. Format/Info : Audio Coding 3
  67. Codec ID : A_AC3
  68. Duration : 1 h 47 min
  69. Bit rate mode : Constant
  70. Bit rate : 448 kb/s
  71. Channel(s) : 6 channels
  72. Channel positions : Front: L C R, Side: L R, LFE
  73. Sampling rate : 48.0 kHz
  74. Frame rate : 31.250 FPS (1536 SPF)
  75. Bit depth : 16 bits
  76. Compression mode : Lossy
  77. Stream size : 344 MiB (1%)
  78. Title : Rampage.2018.2160p.BluRay.x265.10bit.SDR.DTS-HD.MA.TrueHD.7.1.Atmos-SWTYBLZ
  79. Language : English
  80. Service kind : Complete Main
  81. Default : No
  82. Forced : No

  83. Text #1
  84. ID : 5
  85. Format : UTF-8
  86. Codec ID : S_TEXT/UTF8
  87. Codec ID/Info : UTF-8 Plain Text
  88. Duration : 1 h 37 min
  89. Bit rate : 55 b/s
  90. Count of elements : 1257
  91. Stream size : 39.8 KiB (0%)
  92. Title : English-SRT
  93. Language : English
  94. Default : Yes
  95. Forced : No

  96. Text #2
  97. ID : 6
  98. Format : PGS
  99. Muxing mode : zlib
  100. Codec ID : S_HDMV/PGS
  101. Codec ID/Info : Picture based subtitle format used on BDs/HD-DVDs
  102. Duration : 1 h 45 min
  103. Bit rate : 34.6 kb/s
  104. Count of elements : 3088
  105. Stream size : 26.1 MiB (0%)
  106. Title : English-PGS
  107. Language : English
  108. Default : No
  109. Forced : No

  110. Text #3
  111. ID : 7
  112. Format : PGS
  113. Muxing mode : zlib
  114. Codec ID : S_HDMV/PGS
  115. Codec ID/Info : Picture based subtitle format used on BDs/HD-DVDs
  116. Duration : 1 h 46 min
  117. Bit rate : 23.0 kb/s
  118. Count of elements : 2374
  119. Stream size : 17.5 MiB (0%)
  120. Title : French-PGS
  121. Language : French
  122. Default : No
  123. Forced : No

  124. Text #4
  125. ID : 8
  126. Format : PGS
  127. Muxing mode : zlib
  128. Codec ID : S_HDMV/PGS
  129. Codec ID/Info : Picture based subtitle format used on BDs/HD-DVDs
  130. Duration : 1 h 38 min
  131. Bit rate : 18.4 kb/s
  132. Count of elements : 2278
  133. Stream size : 13.0 MiB (0%)
  134. Title : Japanese-PGS
  135. Language : Japanese
  136. Default : No
  137. Forced : No

  138. Text #5
  139. ID : 9
  140. Format : PGS
  141. Muxing mode : zlib
  142. Codec ID : S_HDMV/PGS
  143. Codec ID/Info : Picture based subtitle format used on BDs/HD-DVDs
  144. Duration : 1 h 10 min
  145. Bit rate : 780 b/s
  146. Count of elements : 260
  147. Stream size : 402 KiB (0%)
  148. Title : Japanese-PGS
  149. Language : Japanese
  150. Default : No
  151. Forced : No

  152. Text #6
  153. ID : 10
  154. Format : PGS
  155. Muxing mode : zlib
  156. Codec ID : S_HDMV/PGS
  157. Codec ID/Info : Picture based subtitle format used on BDs/HD-DVDs
  158. Duration : 1 h 46 min
  159. Bit rate : 26.2 kb/s
  160. Count of elements : 2398
  161. Stream size : 20.0 MiB (0%)
  162. Title : Chinese-PGS
  163. Language : Chinese
  164. Default : No
  165. Forced : No

  166. Text #7
  167. ID : 11
  168. Format : PGS
  169. Muxing mode : zlib
  170. Codec ID : S_HDMV/PGS
  171. Codec ID/Info : Picture based subtitle format used on BDs/HD-DVDs
  172. Duration : 1 h 47 min
  173. Bit rate : 30.8 kb/s
  174. Count of elements : 3018
  175. Stream size : 23.6 MiB (0%)
  176. Title : Chinese-PGS
  177. Language : Chinese
  178. Default : No
  179. Forced : No

  180. Text #8
  181. ID : 12
  182. Format : PGS
  183. Muxing mode : zlib
  184. Codec ID : S_HDMV/PGS
  185. Codec ID/Info : Picture based subtitle format used on BDs/HD-DVDs
  186. Duration : 1 h 46 min
  187. Bit rate : 25.8 kb/s
  188. Count of elements : 2574
  189. Stream size : 19.7 MiB (0%)
  190. Title : Chinese-PGS
  191. Language : Chinese
  192. Default : No
  193. Forced : No

  194. Text #9
  195. ID : 13
  196. Format : PGS
  197. Muxing mode : zlib
  198. Codec ID : S_HDMV/PGS
  199. Codec ID/Info : Picture based subtitle format used on BDs/HD-DVDs
  200. Duration : 1 h 46 min
  201. Bit rate : 17.8 kb/s
  202. Count of elements : 2534
  203. Stream size : 13.6 MiB (0%)
  204. Title : Korean-PGS
  205. Language : Korean
  206. Default : No
  207. Forced : No

  208. Text #10
  209. ID : 14
  210. Format : PGS
  211. Muxing mode : zlib
  212. Codec ID : S_HDMV/PGS
  213. Codec ID/Info : Picture based subtitle format used on BDs/HD-DVDs
  214. Duration : 1 h 46 min
  215. Bit rate : 28.1 kb/s
  216. Count of elements : 2552
  217. Stream size : 21.4 MiB (0%)
  218. Title : Spanish-PGS
  219. Language : Spanish
  220. Default : No
  221. Forced : No

  222. Text #11
  223. ID : 15
  224. Format : PGS
  225. Muxing mode : zlib
  226. Codec ID : S_HDMV/PGS
  227. Codec ID/Info : Picture based subtitle format used on BDs/HD-DVDs
  228. Duration : 1 h 46 min
  229. Bit rate : 26.3 kb/s
  230. Count of elements : 2562
  231. Stream size : 20.1 MiB (0%)
  232. Title : Portuguese-PGS
  233. Language : Portuguese
  234. Default : No
  235. Forced : No

  236. Text #12
  237. ID : 16
  238. Format : PGS
  239. Muxing mode : zlib
  240. Codec ID : S_HDMV/PGS
  241. Codec ID/Info : Picture based subtitle format used on BDs/HD-DVDs
  242. Duration : 1 h 46 min
  243. Bit rate : 15.7 kb/s
  244. Count of elements : 2602
  245. Stream size : 12.0 MiB (0%)
  246. Title : Arabic-PGS
  247. Language : Arabic
  248. Default : No
  249. Forced : No

  250. Text #13
  251. ID : 17
  252. Format : PGS
  253. Muxing mode : zlib
  254. Codec ID : S_HDMV/PGS
  255. Codec ID/Info : Picture based subtitle format used on BDs/HD-DVDs
  256. Duration : 1 h 46 min
  257. Bit rate : 22.2 kb/s
  258. Count of elements : 2588
  259. Stream size : 17.0 MiB (0%)
  260. Title : Hebrew-PGS
  261. Language : Hebrew
  262. Default : No
  263. Forced : No

  264. Text #14
  265. ID : 18
  266. Format : PGS
  267. Muxing mode : zlib
  268. Codec ID : S_HDMV/PGS
  269. Codec ID/Info : Picture based subtitle format used on BDs/HD-DVDs
  270. Duration : 1 h 46 min
  271. Bit rate : 29.4 kb/s
  272. Count of elements : 2586
  273. Stream size : 22.5 MiB (0%)
  274. Title : Russian-PGS
  275. Language : Russian
  276. Default : No
  277. Forced : No

  278. Text #15
  279. ID : 19
  280. Format : PGS
  281. Muxing mode : zlib
  282. Codec ID : S_HDMV/PGS
  283. Codec ID/Info : Picture based subtitle format used on BDs/HD-DVDs
  284. Duration : 1 h 46 min
  285. Bit rate : 28.7 kb/s
  286. Count of elements : 2600
  287. Stream size : 21.9 MiB (0%)
  288. Title : Thai-PGS
  289. Language : Thai
  290. Default : No
  291. Forced : No

  292. Text #16
  293. ID : 20
  294. Format : PGS
  295. Muxing mode : zlib
  296. Codec ID : S_HDMV/PGS
  297. Codec ID/Info : Picture based subtitle format used on BDs/HD-DVDs
  298. Duration : 1 h 46 min
  299. Bit rate : 28.4 kb/s
  300. Count of elements : 2586
  301. Stream size : 21.6 MiB (0%)
  302. Title : Turkish-PGS
  303. Language : Turkish
  304. Default : No
  305. Forced : No

  306. Text #17
  307. ID : 21
  308. Format : PGS
  309. Muxing mode : zlib
  310. Codec ID : S_HDMV/PGS
  311. Codec ID/Info : Picture based subtitle format used on BDs/HD-DVDs
  312. Duration : 1 h 46 min
  313. Bit rate : 655 b/s
  314. Count of elements : 38
  315. Stream size : 512 KiB (0%)
  316. Title : French-FORCED-PGS
  317. Language : French
  318. Default : No
  319. Forced : No

  320. Text #18
  321. ID : 22
  322. Format : PGS
  323. Muxing mode : zlib
  324. Codec ID : S_HDMV/PGS
  325. Codec ID/Info : Picture based subtitle format used on BDs/HD-DVDs
  326. Duration : 1 h 47 min
  327. Bit rate : 1 866 b/s
  328. Count of elements : 148
  329. Stream size : 1.43 MiB (0%)
  330. Title : Chinese-FORCED-PGS
  331. Language : Chinese
  332. Default : No
  333. Forced : No

  334. Text #19
  335. ID : 23
  336. Format : PGS
  337. Muxing mode : zlib
  338. Codec ID : S_HDMV/PGS
  339. Codec ID/Info : Picture based subtitle format used on BDs/HD-DVDs
  340. Duration : 1 h 46 min
  341. Bit rate : 837 b/s
  342. Count of elements : 56
  343. Stream size : 655 KiB (0%)
  344. Title : Spanish-FORCED-PGS
  345. Language : Spanish
  346. Default : No
  347. Forced : No

  348. Text #20
  349. ID : 24
  350. Format : PGS
  351. Muxing mode : zlib
  352. Codec ID : S_HDMV/PGS
  353. Codec ID/Info : Picture based subtitle format used on BDs/HD-DVDs
  354. Duration : 1 h 44 min
  355. Bit rate : 283 b/s
  356. Count of elements : 28
  357. Stream size : 216 KiB (0%)
  358. Title : Portuguese-FORCED-PGS
  359. Language : Portuguese
  360. Default : No
  361. Forced : No

  362. Text #21
  363. ID : 25
  364. Format : PGS
  365. Muxing mode : zlib
  366. Codec ID : S_HDMV/PGS
  367. Codec ID/Info : Picture based subtitle format used on BDs/HD-DVDs
  368. Duration : 1 h 46 min
  369. Bit rate : 1 023 b/s
  370. Count of elements : 70
  371. Stream size : 800 KiB (0%)
  372. Title : Russian-FORCED-PGS
  373. Language : Russian
  374. Default : No
  375. Forced : No

  376. Text #22
  377. ID : 26
  378. Format : PGS
  379. Muxing mode : zlib
  380. Codec ID : S_HDMV/PGS
  381. Codec ID/Info : Picture based subtitle format used on BDs/HD-DVDs
  382. Duration : 1 h 45 min
  383. Bit rate : 442 b/s
  384. Count of elements : 46
  385. Stream size : 343 KiB (0%)
  386. Title : Thai-FORCED-PGS
  387. Language : Thai
  388. Default : No
  389. Forced : No

  390. Text #23
  391. ID : 27
  392. Format : PGS
  393. Muxing mode : zlib
  394. Codec ID : S_HDMV/PGS
  395. Codec ID/Info : Picture based subtitle format used on BDs/HD-DVDs
  396. Duration : 1 h 46 min
  397. Bit rate : 776 b/s
  398. Count of elements : 60
  399. Stream size : 607 KiB (0%)
  400. Title : Turkish-FORCED-PGS
  401. Language : Turkish
  402. Default : No
  403. Forced : No

  404. Menu
  405. 00:00:00.000 : en:Chapter 1
  406. 00:12:58.527 : en:Chapter 2
  407. 00:19:56.278 : en:Chapter 3
  408. 00:29:53.291 : en:Chapter 4
  409. 00:40:35.391 : en:Chapter 5
  410. 00:49:10.906 : en:Chapter 6
  411. 01:02:38.171 : en:Chapter 7
  412. 01:10:37.650 : en:Chapter 8
  413. 01:20:10.472 : en:Chapter 9
  414. 01:29:23.608 : en:Chapter 10
复制代码
游客,如果您要查看本帖隐藏内容请回复

回复

使用道具 举报

知名艺人

高清币
69
金钱
203
鲜花
0
在线时间
20 小时
最后登录
2018-10-28
发表于 2018-7-11 23:01:57 | 显示全部楼层
我看不错噢 谢谢楼主!
回复 支持 反对

使用道具 举报

人气偶像

高清币
58
金钱
1271
鲜花
0
在线时间
144 小时
最后登录
2018-10-13
发表于 2018-7-11 23:07:58 | 显示全部楼层
评分不高。。。。下了看看

回复 支持 反对

使用道具 举报

好莱坞明星

高清币
634
金钱
5862
鲜花
0
在线时间
2355 小时
最后登录
2018-11-19
发表于 2018-7-11 23:09:58 | 显示全部楼层
每天都来中国高清论坛看看有什么电影!
回复 支持 反对

使用道具 举报

人气偶像

高清币
58
金钱
1271
鲜花
0
在线时间
144 小时
最后登录
2018-10-13
发表于 2018-7-11 23:10:11 | 显示全部楼层
好大的文件
回复 支持 反对

使用道具 举报

天王巨星

高清币
1
金钱
2888
鲜花
0
在线时间
648 小时
最后登录
2018-11-14
发表于 2018-7-11 23:17:03 | 显示全部楼层
肌肉大叔再出击
回复 支持 反对

使用道具 举报

人气偶像

高清币
27
金钱
881
鲜花
0
在线时间
122 小时
最后登录
2018-8-9
发表于 2018-7-11 23:24:10 | 显示全部楼层
感谢楼主分享精彩电影!
回复 支持 反对

使用道具 举报

永恒神话

高清币
6866
金钱
24598
鲜花
0
在线时间
1524 小时
最后登录
2018-11-19
发表于 2018-7-11 23:27:01 | 显示全部楼层
感谢分享精彩好电影!!!
回复 支持 反对

使用道具 举报

跑龙套

高清币
4
金钱
8
鲜花
0
在线时间
0 小时
最后登录
2018-7-12
发表于 2018-7-11 23:29:38 | 显示全部楼层
萝莉福利资源,不看别后悔:
http://75eo.com/portal.php?x=68210
回复 支持 反对

使用道具 举报

知名艺人

高清币
4
金钱
583
鲜花
0
在线时间
227 小时
最后登录
2018-7-23
发表于 2018-7-11 23:52:59 | 显示全部楼层
感谢分享 非常喜欢巨石强生
回复 支持 反对

使用道具 举报

懒得打字嘛,点击右侧快捷回复 【右侧内容,后台自定义】
您需要登录后才可以回帖 登录 | 立即注册

本版积分规则

QQ|手机版|小黑屋|中国高清论坛 ( 黔ICP备16007815号-1 )

GMT+8, 2018-11-20 08:36 , Processed in 0.093644 second(s), 30 queries .

Powered by Discuz! X3.4

© 2001-2017 Comsenz Inc.

快速回复 返回顶部 返回列表