请选择 进入手机版 | 继续访问电脑版

中国高清论坛

 找回密码
 立即注册
111
搜索
查看: 2675|回复: 359

[动作片] 金蝉脱壳2:冥府/钢铁坟墓2(台) Escape.Plan.2.Hades.2018.MULTi.1080p.BluRay.x264-LOST 6.56 Gi

  [复制链接]

区域版主

高清币
13442
金钱
31705
鲜花
-88
在线时间
10382 小时
最后登录
2018-11-19
发表于 2018-7-11 23:34:59 | 显示全部楼层 |阅读模式
本帖最后由 jinggangshi 于 2018-7-11 23:52 编辑





◎译  名 金蝉脱壳2:冥府/钢铁坟墓2(台)
◎片  名 Escape Plan 2: Hades
◎年  代 2018
◎国  家 美国/中国
◎类  别 动作/惊悚
◎语  言 英语...
◎字  幕 法文
◎IMDb评分 5.6/10 from 108 users
◎IMDB链接 http://imdb.com/title/tt6513656/
◎文件格式 x264 + AC3
◎视频尺寸 1920x808
◎文件大小 6.56 GiB
◎片  长 1 h 33 min
◎导  演 史蒂芬·C·米勒 Steven C. Miller
◎主  演 西尔维斯特·史泰龙 Sylvester Stallone
       黄晓明 Xiaoming Huang
       戴夫·巴蒂斯塔 Dave Bautista
       杰米·金 Jaime King
       50分 50 Cent
       杰西·麦特卡尔菲 Jesse Metcalfe
       约翰·威斯利·查特曼 John Wesley Chatham


◎简  介

  黄晓明是史泰龙饰演的雷·布雷斯林的弟子。某天,黄晓明在夜市被蒙面人挟持,关进了名为“Hades”的监狱。这座监狱关押着各型各色重型犯人,仿佛残酷人类战场。为了营救晓明,史泰龙叫上戴夫·巴蒂斯塔作为接应的助手,故意让自己被抓住后,深入这座监狱,与晓明互相配合,共同作战逃脱。
  1. General
  2. Complete name                  :  Escape.Plan.2.Hades.2018.MULTi.1080p.BluRay.x264-LOST\Escape.Plan.2.Hades.2018.MULTi.1080p.BluRay.x264-LOST.mkv
  3. Format                         : Matroska
  4. Format version                 : Version 2
  5. File size                      : 6.56 GiB
  6. Duration                       : 1 h 33 min
  7. Overall bit rate               : 9 993 kb/s
  8. Writing application            : mkvmerge v6.6.0 ('The Edge Of The In Between') built on Dec 1 2013 17:55:00
  9. Writing library                : libebml v1.3.0 + libmatroska v1.4.1
  10. FileExtension_Invalid          : mkv mk3d mka mks

  11. Video
  12. ID                             : 1
  13. Format                         : AVC
  14. Format/Info                    : Advanced Video Codec
  15. Format profile                 : High@L4.1
  16. Format settings                : CABAC / 5 Ref Frames
  17. Format settings, CABAC         : Yes
  18. Format settings, ReFrames      : 5 frames
  19. Codec ID                       : V_MPEG4/ISO/AVC
  20. Duration                       : 1 h 33 min
  21. Bit rate                       : 8 715 kb/s
  22. Width                          : 1 920 pixels
  23. Height                         : 808 pixels
  24. Display aspect ratio           : 2.40:1
  25. Frame rate mode                : Constant
  26. Frame rate                     : 23.976 (24000/1001) FPS
  27. Color space                    : YUV
  28. Chroma subsampling             : 4:2:0
  29. Bit depth                      : 8 bits
  30. Scan type                      : Progressive
  31. Bits/(Pixel*Frame)             : 0.234
  32. Stream size                    : 5.59 GiB (85%)
  33. Writing library                : x264 core 155 r2901 7d0ff22
  34. Encoding settings              : cabac=1 / ref=5 / deblock=1:0:0 / analyse=0x3:0x113 / me=umh / subme=8 / psy=1 / psy_rd=1.00:0.00 / mixed_ref=1 / me_range=16 / chroma_me=1 / trellis=1 / 8x8dct=1 / cqm=0 / deadzone=21,11 / fast_pskip=1 / chroma_qp_offset=-2 / threads=18 / lookahead_threads=3 / sliced_threads=0 / nr=0 / decimate=1 / interlaced=0 / bluray_compat=0 / constrained_intra=0 / bframes=3 / b_pyramid=2 / b_adapt=2 / b_bias=0 / direct=3 / weightb=1 / open_gop=0 / weightp=2 / keyint=240 / keyint_min=24 / scenecut=40 / intra_refresh=0 / rc_lookahead=50 / rc=2pass / mbtree=1 / bitrate=8715 / ratetol=1.0 / qcomp=0.60 / qpmin=0 / qpmax=69 / qpstep=4 / cplxblur=20.0 / qblur=0.5 / ip_ratio=1.40 / aq=1:1.00
  35. Language                       : English
  36. Default                        : Yes
  37. Forced                         : No

  38. Audio #1
  39. ID                             : 2
  40. Format                         : AC-3
  41. Format/Info                    : Audio Coding 3
  42. Codec ID                       : A_AC3
  43. Duration                       : 1 h 33 min
  44. Bit rate mode                  : Constant
  45. Bit rate                       : 640 kb/s
  46. Channel(s)                     : 6 channels
  47. Channel positions              : Front: L C R, Side: L R, LFE
  48. Sampling rate                  : 48.0 kHz
  49. Frame rate                     : 31.250 FPS (1536 SPF)
  50. Bit depth                      : 16 bits
  51. Compression mode               : Lossy
  52. Stream size                    : 430 MiB (6%)
  53. Title                          : French AC3 640kbps
  54. Language                       : French
  55. Service kind                   : Complete Main
  56. Default                        : Yes
  57. Forced                         : No

  58. Audio #2
  59. ID                             : 3
  60. Format                         : AC-3
  61. Format/Info                    : Audio Coding 3
  62. Codec ID                       : A_AC3
  63. Duration                       : 1 h 33 min
  64. Bit rate mode                  : Constant
  65. Bit rate                       : 640 kb/s
  66. Channel(s)                     : 6 channels
  67. Channel positions              : Front: L C R, Side: L R, LFE
  68. Sampling rate                  : 48.0 kHz
  69. Frame rate                     : 31.250 FPS (1536 SPF)
  70. Bit depth                      : 16 bits
  71. Compression mode               : Lossy
  72. Stream size                    : 430 MiB (6%)
  73. Title                          : English AC3 640kbps
  74. Language                       : English
  75. Service kind                   : Complete Main
  76. Default                        : Yes
  77. Forced                         : No

  78. Text #1
  79. ID                             : 4
  80. Format                         : UTF-8
  81. Codec ID                       : S_TEXT/UTF8
  82. Codec ID/Info                  : UTF-8 Plain Text
  83. Title                          : Forced
  84. Language                       : French
  85. Default                        : Yes
  86. Forced                         : Yes

  87. Text #2
  88. ID                             : 5
  89. Format                         : UTF-8
  90. Codec ID                       : S_TEXT/UTF8
  91. Codec ID/Info                  : UTF-8 Plain Text
  92. Title                          : French
  93. Language                       : French
  94. Default                        : No
  95. Forced                         : No

  96. Text #3
  97. ID                             : 6
  98. Format                         : UTF-8
  99. Codec ID                       : S_TEXT/UTF8
  100. Codec ID/Info                  : UTF-8 Plain Text
  101. Title                          : French SDH
  102. Language                       : French
  103. Default                        : No
  104. Forced                         : No

  105. Menu
  106. 00:00:00.000                   : en:00:00:00.000
  107. 00:15:03.402                   : en:00:15:03.402
  108. 00:27:36.113                   : en:00:27:36.113
  109. 00:40:20.376                   : en:00:40:20.376
  110. 00:53:11.397                   : en:00:53:11.397
  111. 01:06:07.380                   : en:01:06:07.380
  112. 01:19:15.000                   : en:01:19:15.000
  113. 01:26:19.549                   : en:01:26:19.549

复制代码
游客,如果您要查看本帖隐藏内容请回复

回复

使用道具 举报

知名艺人

高清币
100
金钱
529
鲜花
0
在线时间
76 小时
最后登录
2018-9-10
发表于 2018-7-11 23:43:39 | 显示全部楼层
其实我一直觉得楼主的品味不错!呵呵!
回复 支持 反对

使用道具 举报

跑龙套

高清币
1
金钱
47
鲜花
0
在线时间
5 小时
最后登录
2018-7-24
发表于 2018-7-11 23:44:16 | 显示全部楼层
感谢楼主分享精彩电影!
回复 支持 反对

使用道具 举报

金鸡奖主角

高清币
48
金钱
4187
鲜花
0
在线时间
551 小时
最后登录
2018-11-19
发表于 2018-7-11 23:46:15 | 显示全部楼层
楼主分享的高清电影太好了!
回复 支持 反对

使用道具 举报

天王巨星

高清币
295
金钱
2136
鲜花
0
在线时间
317 小时
最后登录
2018-9-13
发表于 2018-7-11 23:48:09 | 显示全部楼层
每天都来中国高清论坛看看有什么电影!
回复 支持 反对

使用道具 举报

人气偶像

高清币
248
金钱
595
鲜花
0
在线时间
44 小时
最后登录
2018-10-4
发表于 2018-7-12 00:16:22 | 显示全部楼层
感谢楼主分享 支持
回复 支持 反对

使用道具 举报

超级明星

高清币
2915
金钱
6181
鲜花
0
在线时间
3316 小时
最后登录
2018-11-19
发表于 2018-7-12 00:16:53 | 显示全部楼层
Thanks for sharing
回复 支持 反对

使用道具 举报

人气偶像

高清币
60
金钱
1800
鲜花
0
在线时间
397 小时
最后登录
2018-11-19
发表于 2018-7-12 00:17:03 | 显示全部楼层
每天都来中国高清论坛看看有什么电影!
回复 支持 反对

使用道具 举报

人气偶像

高清币
60
金钱
1800
鲜花
0
在线时间
397 小时
最后登录
2018-11-19
发表于 2018-7-12 00:18:45 | 显示全部楼层

每天都来中国高清论坛看看有什么电影!
回复 支持 反对

使用道具 举报

人气偶像

高清币
130
金钱
1672
鲜花
0
在线时间
665 小时
最后登录
2018-11-20
发表于 2018-7-12 00:21:17 | 显示全部楼层
楼主的帖子实在是写得太好了,不觉明厉啊!
回复 支持 反对

使用道具 举报

懒得打字嘛,点击右侧快捷回复 【右侧内容,后台自定义】
您需要登录后才可以回帖 登录 | 立即注册

本版积分规则

QQ|手机版|小黑屋|中国高清论坛 ( 黔ICP备16007815号-1 )

GMT+8, 2018-11-20 07:57 , Processed in 0.279624 second(s), 29 queries .

Powered by Discuz! X3.4

© 2001-2017 Comsenz Inc.

快速回复 返回顶部 返回列表