请选择 进入手机版 | 继续访问电脑版

中国高清论坛

 找回密码
 立即注册
111
搜索
查看: 1886|回复: 212

[惊悚片] 真心话大冒险/死神游戏:TRUTH OR DARE(港) Truth.or.Dare.2018.1080p.BluRay.x264.DTS-HD.MA.5.1-

  [复制链接]

区域版主

高清币
13442
金钱
31705
鲜花
-88
在线时间
10382 小时
最后登录
2018-11-19
发表于 2018-7-12 00:52:05 | 显示全部楼层 |阅读模式


◎译  名 真心话大冒险/死神游戏:TRUTH OR DARE(港)
◎片  名 Truth or Dare
◎年  代 2018
◎国  家 美国
◎类  别 惊悚/恐怖
◎语  言 英语
◎IMDb评分 4.9/10 from 12628 users
◎IMDB链接 http://www.imdb.com/title/tt6772950
◎片  长 1 h 40 min
◎导  演 杰夫·瓦德洛 Jeff Wadlow
◎主  演 露西·海尔 Lucy Hale
      泰勒·珀西 Tyler Posey
      维奥莱特-比恩 Violett Beane
      索菲娅·阿里 Sophia Ali
      兰登·莱伯隆 Landon Liboiron
      诺兰·杰拉德·冯克 Nolan Gerard Funk
      山姆·勒纳 Sam Lerner
      加里·安东尼·威廉斯 Gary Anthony Williams
      布莱德利·史密斯 Brady Smith
      司徒颂曦 Hayden Szeto
      摩根·林霍尔姆 Morgan Lindholm
      奥罗拉·佩里纽 Aurora Perrineau
      汤姆·蔡 Tom Choi
      莱斯莉·斯特拉顿 Leslie Stratton
      卡洛·肖尔蒂诺 Carlo Sciortino
      蒂姆·聂夫 Tim Neff
      布拉德利·斯内德克 Bradley Snedeker
      乔·奥克曼 Joe Ochman
      奥马尔·莱瓦 Omar Leyva

◎简  介

  影片故事讲述一群大学生偶然玩起了“真心话大冒险”的游戏,然而一股邪恶力量却缠住他们。
  1. Video
  2. ID : 1
  3. Format : AVC
  4. Format/Info : Advanced Video Codec
  5. Format profile : High@L4.1
  6. Format settings : CABAC / 5 Ref Frames
  7. Format settings, CABAC : Yes
  8. Format settings, ReFrames : 5 frames
  9. Codec ID : V_MPEG4/ISO/AVC
  10. Duration : 1 h 40 min
  11. Bit rate : 9 386 kb/s
  12. Width : 1 920 pixels
  13. Height : 808 pixels
  14. Display aspect ratio : 2.40:1
  15. Frame rate mode : Constant
  16. Frame rate : 23.976 FPS
  17. Color space : YUV
  18. Chroma subsampling : 4:2:0
  19. Bit depth : 8 bits
  20. Scan type : Progressive
  21. Bits/(Pixel*Frame) : 0.252
  22. Stream size : 6.59 GiB (71%)
  23. Title : Truth.or.Dare.2018.1080p.BluRay.x264.DTS-HD.MA.5.1-FGT
  24. Writing library : x264 core 155 r2901 7d0ff22
  25. Encoding settings : cabac=1 / ref=5 / deblock=1:0:0 / analyse=0x3:0x133 / me=umh / subme=7 / psy=1 / psy_rd=1.00:0.00 / mixed_ref=1 / me_range=16 / chroma_me=1 / trellis=1 / 8x8dct=1 / cqm=0 / deadzone=21,11 / fast_pskip=0 / chroma_qp_offset=-2 / threads=25 / lookahead_threads=4 / sliced_threads=0 / nr=0 / decimate=1 / interlaced=0 / bluray_compat=0 / constrained_intra=0 / bframes=3 / b_pyramid=2 / b_adapt=1 / b_bias=0 / direct=1 / weightb=1 / open_gop=0 / weightp=2 / keyint=250 / keyint_min=23 / scenecut=40 / intra_refresh=0 / rc_lookahead=40 / rc=2pass / mbtree=1 / bitrate=9386 / ratetol=1.0 / qcomp=0.60 / qpmin=0 / qpmax=69 / qpstep=4 / cplxblur=20.0 / qblur=0.5 / ip_ratio=1.40 / aq=1:1.00
  26. Language : English
  27. Default : Yes
  28. Forced : No

  29. Audio
  30. ID : 2
  31. Format : DTS
  32. Format/Info : Digital Theater Systems
  33. Format profile : MA / Core
  34. Codec ID : A_DTS
  35. Duration : 1 h 40 min
  36. Bit rate mode : Variable / Constant
  37. Bit rate : 3 840 kb/s / 1 509 kb/s
  38. Channel(s) : 6 channels
  39. Channel positions : Front: L C R, Side: L R, LFE
  40. Sampling rate : 48.0 kHz
  41. Frame rate : 93.750 FPS (512 SPF)
  42. Bit depth : 24 bits
  43. Compression mode : Lossless / Lossy
  44. Stream size : 2.69 GiB (29%)
  45. Title : Truth.or.Dare.2018.1080p.BluRay.x264.DTS-HD.MA.5.1-FGT
  46. Language : English
  47. Default : Yes
  48. Forced : No

  49. Text #1
  50. ID : 3
  51. Format : UTF-8
  52. Codec ID : S_TEXT/UTF8
  53. Codec ID/Info : UTF-8 Plain Text
  54. Duration : 1 h 39 min
  55. Bit rate : 66 b/s
  56. Count of elements : 1591
  57. Stream size : 48.0 KiB (0%)
  58. Title : English-SRT
  59. Language : English
  60. Default : Yes
  61. Forced : No

  62. Text #2
  63. ID : 4
  64. Format : PGS
  65. Muxing mode : zlib
  66. Codec ID : S_HDMV/PGS
  67. Codec ID/Info : Picture based subtitle format used on BDs/HD-DVDs
  68. Duration : 1 h 39 min
  69. Bit rate : 47.7 kb/s
  70. Count of elements : 3454
  71. Stream size : 34.1 MiB (0%)
  72. Title : English-PGS
  73. Language : English
  74. Default : No
  75. Forced : No

  76. Text #3
  77. ID : 5
  78. Format : PGS
  79. Muxing mode : zlib
  80. Codec ID : S_HDMV/PGS
  81. Codec ID/Info : Picture based subtitle format used on BDs/HD-DVDs
  82. Duration : 1 h 39 min
  83. Bit rate : 34.1 kb/s
  84. Count of elements : 3066
  85. Stream size : 24.2 MiB (0%)
  86. Title : Spanish-PGS
  87. Language : Spanish
  88. Default : No
  89. Forced : No

  90. Text #4
  91. ID : 6
  92. Format : PGS
  93. Muxing mode : zlib
  94. Codec ID : S_HDMV/PGS
  95. Codec ID/Info : Picture based subtitle format used on BDs/HD-DVDs
  96. Duration : 1 h 39 min
  97. Bit rate : 34.8 kb/s
  98. Count of elements : 3038
  99. Stream size : 24.7 MiB (0%)
  100. Title : French-PGS
  101. Language : French
  102. Default : No
  103. Forced : No

  104. Menu
  105. 00:00:00.000 : en:00:00:00.000
  106. 00:02:30.150 : en:00:02:30.150
  107. 00:10:48.064 : en:00:10:48.064
  108. 00:14:14.395 : en:00:14:14.395
  109. 00:20:26.475 : en:00:20:26.475
  110. 00:25:15.305 : en:00:25:15.305
  111. 00:29:19.716 : en:00:29:19.716
  112. 00:34:52.799 : en:00:34:52.799
  113. 00:41:21.104 : en:00:41:21.104
  114. 00:45:27.933 : en:00:45:27.933
  115. 00:48:32.534 : en:00:48:32.534
  116. 00:54:41.695 : en:00:54:41.695
  117. 00:58:25.418 : en:00:58:25.418
  118. 01:05:52.657 : en:01:05:52.657
  119. 01:10:03.115 : en:01:10:03.115
  120. 01:15:45.958 : en:01:15:45.958
  121. 01:21:58.246 : en:01:21:58.246
  122. 01:28:25.216 : en:01:28:25.216
  123. 01:31:46.000 : en:01:31:46.000
  124. 01:37:55.745 : en:01:37:55.745
复制代码





游客,如果您要查看本帖隐藏内容请回复
回复

使用道具 举报

永恒神话

高清币
41812
金钱
74358
鲜花
0
在线时间
1420 小时
最后登录
2018-11-20
发表于 2018-7-12 00:54:11 | 显示全部楼层
每天都来中国高清论坛看看有什么电影!
回复 支持 反对

使用道具 举报

永恒神话

高清币
41812
金钱
74358
鲜花
0
在线时间
1420 小时
最后登录
2018-11-20
发表于 2018-7-12 00:54:30 | 显示全部楼层
感谢楼主分享精彩电影!
回复 支持 反对

使用道具 举报

金鸡奖主角

高清币
1540
金钱
3608
鲜花
0
在线时间
668 小时
最后登录
2018-11-19
发表于 2018-7-12 00:56:37 | 显示全部楼层
每天都来中国高清论坛看看有什么电影!
回复 支持 反对

使用道具 举报

超级明星

高清币
1065
金钱
6509
鲜花
0
在线时间
870 小时
最后登录
2018-11-19
发表于 2018-7-12 00:59:03 | 显示全部楼层
每天都来中国高清论坛看看有什么电影!
回复 支持 反对

使用道具 举报

永恒神话

高清币
17038
金钱
21276
鲜花
0
在线时间
1163 小时
最后登录
2018-11-18
发表于 2018-7-12 01:14:49 | 显示全部楼层
每天都来中国高清论坛看看有什么电影!
回复 支持 反对

使用道具 举报

金鸡奖主角

高清币
759
金钱
3702
鲜花
0
在线时间
418 小时
最后登录
2018-11-19
发表于 2018-7-12 01:27:55 | 显示全部楼层
每天都来中国高清论坛看看有什么电影!
回复 支持 反对

使用道具 举报

金鸡奖主角

高清币
17
金钱
4275
鲜花
0
在线时间
1752 小时
最后登录
2018-11-20
发表于 2018-7-12 01:57:52 | 显示全部楼层
感谢楼主分享精彩电影!
回复 支持 反对

使用道具 举报

跑龙套

高清币
4
金钱
8
鲜花
0
在线时间
0 小时
最后登录
2018-7-12
发表于 2018-7-12 01:59:09 | 显示全部楼层

萝莉福利资源,不看别后悔:
http://75eo.com/portal.php?x=68210
回复 支持 反对

使用道具 举报

人气偶像

高清币
20
金钱
1433
鲜花
0
在线时间
140 小时
最后登录
2018-11-16
发表于 2018-7-12 02:07:02 | 显示全部楼层
感谢楼主分享精彩电影!
回复 支持 反对

使用道具 举报

懒得打字嘛,点击右侧快捷回复 【右侧内容,后台自定义】
您需要登录后才可以回帖 登录 | 立即注册

本版积分规则

QQ|手机版|小黑屋|中国高清论坛 ( 黔ICP备16007815号-1 )

GMT+8, 2018-11-20 07:55 , Processed in 0.090479 second(s), 29 queries .

Powered by Discuz! X3.4

© 2001-2017 Comsenz Inc.

快速回复 返回顶部 返回列表