请选择 进入手机版 | 继续访问电脑版

中国高清论坛

 找回密码
 立即注册
111
搜索
查看: 5087|回复: 786

[犯罪片] 泄密者/泄密者们 [国粤双语/中字] The.Leakers.2018.CHINESE.1080p.BluRay.x264.DD5.1-CHD 14.15GB

  [复制链接]

超级版主

高清币
964913
金钱
30702
鲜花
2
在线时间
4103 小时
最后登录
2018-12-12
发表于 2018-8-4 21:40:43 | 显示全部楼层 |阅读模式
本帖最后由 ccbby 于 2018-8-4 22:00 编辑

6296fc8950fc83a93fc28770dc735d518f4c21ff.jpg

◎译  名 泄密者/泄密者们
◎片  名 洩密者
◎年  代 2018
◎产  地 香港
◎类  别 剧情/犯罪
◎语  言 粤语/汉语普通话
◎上映日期 2018-06-15(中国大陆)/2018-06-21(香港)
◎IMDb评分  5.1/10 from 71 users
◎IMDb链接  http://www.imdb.com/title/tt8490838/
◎豆瓣评分 5.4/10 from 12,617 users
◎豆瓣链接 https://movie.douban.com/subject/27195080/
◎片  长 100分钟
◎导  演 邱礼涛 Herman Yau
◎主  演 吴镇宇 Francis Ng
      张智霖 Julian Cheung
      佘诗曼 Charmaine Sheh
      周秀娜 Chrissie Chaw
      郑则仕 Kent Cheng
      刘浩龙 Wilfred Lau
      张继聪 Louis Cheung
      李灿森 Sam Lee
      诗雅 Michelle Wai
      杨柳青 Wiyona Yeung
      灰熊 Kumer
      林嘉华 Dominic Lam

◎简  介

  马来西亚发生高危的变种传染病,医生大胆给自愿病人使用未经官方认可的新药。当地一新闻记者突然堕楼身亡,接连药业公司AMANAH的创办人兼董事长的儿子离奇自杀后,其妻急赴香港,警长李永勤与香港警察王大伟合作追查。王大伟收到一条视频,里面自称“泄密者”的神秘组织透露了药业界的黑幕,更指控AMANAH藉着瘟疫大发灾难财。“泄密者”邀约香港日报记者阮嘉岚会面。李永勤和王大伟追踪到阮嘉岚与泄密者的见面地点……

◎获奖情况

  第21届上海国际电影节  (2018)
  电影频道传媒大奖(提名) 邱礼涛

  1. Video
  2. ID : 1
  3. Format : AVC
  4. Format/Info : Advanced Video Codec
  5. Format profile : High@L4.1
  6. Format settings : CABAC / 4 Ref Frames
  7. Format settings, CABAC : Yes
  8. Format settings, ReFrames : 4 frames
  9. Codec ID : V_MPEG4/ISO/AVC
  10. Duration : 1 h 42 min
  11. Bit rate : 18.4 Mb/s
  12. Width : 1 920 pixels
  13. Height : 806 pixels
  14. Display aspect ratio : 2.40:1
  15. Frame rate mode : Constant
  16. Frame rate : 24.000 FPS
  17. Color space : YUV
  18. Chroma subsampling : 4:2:0
  19. Bit depth : 8 bits
  20. Scan type : Progressive
  21. Bits/(Pixel*Frame) : 0.495
  22. Stream size : 13.2 GiB (93%)
  23. Writing library : x264 core 155 r2867+74 66b5600 t_mod_Custom_2 [8-bit@all X86_64]
  24. Encoding settings : cabac=1 / ref=4 / deblock=1:-3:-3 / analyse=0x3:0x113 / me=umh / subme=10 / psy=1 / fade_compensate=0.00 / psy_rd=0.90:0.10 / mixed_ref=1 / me_range=48 / chroma_me=1 / trellis=2 / 8x8dct=1 / cqm=0 / deadzone=21,11 / fast_pskip=0 / chroma_qp_offset=-2 / threads=18 / lookahead_threads=3 / sliced_threads=0 / nr=0 / decimate=1 / interlaced=0 / bluray_compat=0 / constrained_intra=0 / fgo=0 / bframes=8 / b_pyramid=2 / b_adapt=2 / b_bias=0 / direct=3 / weightb=1 / open_gop=0 / weightp=2 / keyint=250 / keyint_min=24 / scenecut=40 / intra_refresh=0 / rc_lookahead=40 / rc=crf / mbtree=0 / crf=20.0000 / qcomp=0.70 / qpmin=0:0:0 / qpmax=69:69:69 / qpstep=4 / vbv_maxrate=35000 / vbv_bufsize=35000 / crf_max=0.0 / nal_hrd=none / filler=0 / ip_ratio=1.40 / pb_ratio=1.30 / aq=3:0.90 / aq-sensitivity=10.00 / aq-factor=1.00:1.00:1.00 / aq2=0 / aq3=2:[0.50:0.50]:[0.50:0.50]:[0.50:0.50]:[0.50:0.50] / aq3-sensitivity=10.00 / aq3-factor=[1.00:1.00]:[1.00:1.00]:[1.00:1.00] / aq3-boundary=192:64:24
  25. Language : Chinese
  26. Default : Yes
  27. Forced : No
  28. Color range : Limited
  29. Matrix coefficients : BT.709

  30. Audio #1
  31. ID : 2
  32. Format : AC-3
  33. Format/Info : Audio Coding 3
  34. Codec ID : A_AC3
  35. Duration : 1 h 42 min
  36. Bit rate mode : Constant
  37. Bit rate : 640 kb/s
  38. Channel(s) : 6 channels
  39. Channel positions : Front: L C R, Side: L R, LFE
  40. Sampling rate : 48.0 kHz
  41. Frame rate : 31.250 FPS (1536 SPF)
  42. Bit depth : 16 bits
  43. Compression mode : Lossy
  44. Stream size : 470 MiB (3%)
  45. Language : Chinese
  46. Service kind : Complete Main
  47. Default : Yes
  48. Forced : No

  49. Audio #2
  50. ID : 3
  51. Format : AC-3
  52. Format/Info : Audio Coding 3
  53. Codec ID : A_AC3
  54. Duration : 1 h 42 min
  55. Bit rate mode : Constant
  56. Bit rate : 640 kb/s
  57. Channel(s) : 6 channels
  58. Channel positions : Front: L C R, Side: L R, LFE
  59. Sampling rate : 48.0 kHz
  60. Frame rate : 31.250 FPS (1536 SPF)
  61. Bit depth : 16 bits
  62. Compression mode : Lossy
  63. Stream size : 470 MiB (3%)
  64. Language : Chinese
  65. Service kind : Complete Main
  66. Default : No
  67. Forced : No

  68. Text #1
  69. ID : 4
  70. Format : PGS
  71. Muxing mode : zlib
  72. Codec ID : S_HDMV/PGS
  73. Codec ID/Info : Picture based subtitle format used on BDs/HD-DVDs
  74. Duration : 1 h 36 min
  75. Bit rate : 38.7 kb/s
  76. Count of elements : 1984
  77. Stream size : 26.7 MiB (0%)
  78. Language : Chinese
  79. Default : Yes
  80. Forced : No

  81. Text #2
  82. ID : 5
  83. Format : PGS
  84. Muxing mode : zlib
  85. Codec ID : S_HDMV/PGS
  86. Codec ID/Info : Picture based subtitle format used on BDs/HD-DVDs
  87. Duration : 1 h 35 min
  88. Bit rate : 39.8 kb/s
  89. Count of elements : 1979
  90. Stream size : 27.1 MiB (0%)
  91. Language : Chinese
  92. Default : No
  93. Forced : No

  94. Menu
  95. 00:00:00.000 : en:00:00:00.000
  96. 00:08:54.917 : en:00:08:54.917
  97. 00:16:41.333 : en:00:16:41.333
  98. 00:25:53.583 : en:00:25:53.583
  99. 00:33:45.583 : en:00:33:45.583
  100. 00:42:34.417 : en:00:42:34.417
  101. 00:52:55.667 : en:00:52:55.667
  102. 00:59:50.458 : en:00:59:50.458
  103. 01:08:23.417 : en:01:08:23.417
  104. 01:17:30.208 : en:01:17:30.208
  105. 01:26:12.708 : en:01:26:12.708
  106. 01:35:03.250 : en:01:35:03.250
复制代码
游客,如果您要查看本帖隐藏内容请回复

回复

使用道具 举报

禁止访问

高清币
12
金钱
16
鲜花
0
在线时间
2 小时
最后登录
2018-8-5
发表于 2018-8-4 21:41:43 | 显示全部楼层
提示: 作者被禁止或删除 内容自动屏蔽
回复 支持 反对

使用道具 举报

金鸡奖主角

高清币
684
金钱
2282
鲜花
0
在线时间
415 小时
最后登录
2018-12-8
发表于 2018-8-4 21:42:45 | 显示全部楼层
既然你诚信诚意的推荐了,那我就勉为其难的看看吧!
回复 支持 反对

使用道具 举报

人气偶像

高清币
14
金钱
1268
鲜花
0
在线时间
241 小时
最后登录
2018-10-12
发表于 2018-8-4 21:43:19 手机频道 | 显示全部楼层
谢谢楼主分享哦
回复 支持 反对

使用道具 举报

永恒神话

高清币
5738
金钱
12735
鲜花
0
在线时间
960 小时
最后登录
2018-12-7
发表于 2018-8-4 21:43:44 | 显示全部楼层
楼主,大恩不言谢了!
回复 支持 反对

使用道具 举报

超级明星

高清币
2490
金钱
5769
鲜花
0
在线时间
385 小时
最后登录
2018-12-11
发表于 2018-8-4 21:44:07 | 显示全部楼层
下载看看,收藏,感谢楼主分享!
回复 支持 反对

使用道具 举报

知名艺人

高清币
3
金钱
346
鲜花
0
在线时间
99 小时
最后登录
2018-11-16
发表于 2018-8-4 21:44:52 | 显示全部楼层
谢谢楼主分享哦

回复 支持 反对

使用道具 举报

超级明星

高清币
1242
金钱
6332
鲜花
0
在线时间
1340 小时
最后登录
2018-12-11
发表于 2018-8-4 21:46:41 手机频道 | 显示全部楼层
谢谢楼主分享哦
回复 支持 反对

使用道具 举报

知名艺人

高清币
1
金钱
320
鲜花
0
在线时间
33 小时
最后登录
2018-12-9
发表于 2018-8-4 21:50:08 | 显示全部楼层
每天都来中国高清论坛看看有什么电影!
回复 支持 反对

使用道具 举报

金鸡奖主角

高清币
370
金钱
4191
鲜花
0
在线时间
326 小时
最后登录
2018-12-11
发表于 2018-8-4 21:50:15 | 显示全部楼层
每天都来中国高清论坛看看有什么电影!
回复 支持 反对

使用道具 举报

懒得打字嘛,点击右侧快捷回复 【右侧内容,后台自定义】
您需要登录后才可以回帖 登录 | 立即注册

本版积分规则

QQ|手机版|小黑屋|中国高清论坛 ( 黔ICP备16007815号-1 )

GMT+8, 2018-12-12 06:59 , Processed in 0.089570 second(s), 31 queries .

Powered by Discuz! X3.4

© 2001-2017 Comsenz Inc.

快速回复 返回顶部 返回列表