请选择 进入手机版 | 继续访问电脑版

中国高清论坛

 找回密码
 立即注册
111
搜索
查看: 5882|回复: 1191

[动作片] 死侍2 未分级加长版 Deadpool.2.2018.Super.Duper.Cut.UNRATED.1080p.AMZN.WEBRip.DDP5.1.x264

  [复制链接]

超级版主

高清币
964909
金钱
30698
鲜花
2
在线时间
4103 小时
最后登录
2018-12-12
发表于 2018-8-7 16:28:17 | 显示全部楼层 |阅读模式
本帖最后由 ccbby 于 2018-8-7 20:46 编辑


poster_opt.jpg
◎译  名 死侍2
◎片  名 Deadpool 2
◎年  代 2018
◎产  地 美国
◎类  别 喜剧/动作/科幻/冒险
◎语  言 英语
◎上映日期 2018-05-18(美国)
◎IMDb评分  8.0/10 from 192,197 users
◎IMDb链接  https://www.imdb.com/title/tt5463162/
◎豆瓣评分 7.6/10 from 48,812 users
◎豆瓣链接 https://movie.douban.com/subject/26588308/
◎片  长 119分钟
◎导  演 大卫·雷奇 David Leitch
◎主  演 瑞恩·雷诺兹 Ryan Reynolds
      乔什·布洛林 Josh Brolin
      莫蕾娜·巴卡林 Morena Baccarin
      朱利安·迪尼森 Julian Dennison
      莎姬·贝兹 Zazie Beetz
      T·J·米勒 T.J. Miller
      莱斯利·格塞斯 Leslie Uggams
      卡兰·索尼 Karan Soni
      布里安娜·希德布兰德 Brianna Hildebrand
      杰克·凯西 Jack Kesy
      埃迪·马森 Eddie Marsan
      忽那汐里 Kutsuna Shiori
      斯蒂芬·卡皮契奇 Stefan Kapicic
      兰德尔·瑞德 Randal Reeder
      尼古莱·维切尔 Nikolai Witschl
      赛尔·哈里斯 Thayr Harris
      罗伯·德兰尼 Rob Delaney
      刘易斯·谭 Lewis Tan
      比尔·斯卡斯加德 Bill Skarsg?rd
      泰瑞·克鲁斯 Terry Crews
      布拉德·皮特 Brad Pitt
      罗伯特·梅耶 Robert Maillet
      艾伦·图代克 Alan Tudyk
      马特·达蒙 Matt Damon
      海莉·塞尔斯 Hayley Sales
      麦克·多普德 Mike Dopud
      卢克·勒斯勒尔 Luke Roessler
      亨特·狄龙 Hunter Dillon
      大卫·雷奇 David Leitch
      山姆·哈格雷夫 Sam Hargrave
      尼古拉斯·霍尔特 Nicholas Hoult

◎简  介

  拥有不死之身的死侍韦德·威尔森(瑞恩·雷诺兹 Ryan Reynolds 饰)继续在惩恶扬善、毒舌嘴贱的路上绝命狂奔,与此同时他和女友瓦内莎(莫蕾娜·巴卡林 Morena Baccarin 饰)的爱情逐渐升华,两人全新期待新生命的到来。谁知命运难测,因瓦内莎意外身亡,韦德万念俱灰,绝望地渴求生命的终结。在他最失落的时候,钢力士和少年弹头等将他领走,成为X战警中的一员。在某次行动中,死侍因袒护暴走的14岁变种人拉塞尔(朱利安·迪尼森 Julian Dennison 饰)而随同对方被关入冰盒监狱。没过多久,来自未来的电索(乔什·布洛林 Josh Brolin 饰)闯入监狱,意图杀死在未来引起无数灾难的拉塞尔。
  为了阻止电索,逃离监狱的死侍找到一群战友与之对抗,而拉塞尔则朝着黑暗渐渐远去……

◎获奖情况

  第4届豆瓣电影年度榜单  (2017)
  最值得期待的外语电影(提名)








  1. Video
  2. ID : 1
  3. Format : AVC
  4. Format/Info : Advanced Video Codec
  5. Format profile : High@L4
  6. Format settings : CABAC / 4 Ref Frames
  7. Format settings, CABAC : Yes
  8. Format settings, ReFrames : 4 frames
  9. Codec ID : V_MPEG4/ISO/AVC
  10. Duration : 2 h 14 min
  11. Bit rate mode : Constant
  12. Bit rate : 10 000 kb/s
  13. Width : 1 920 pixels
  14. Height : 1 080 pixels
  15. Display aspect ratio : 16:9
  16. Frame rate mode : Constant
  17. Frame rate : 23.976 (24000/1001) FPS
  18. Color space : YUV
  19. Chroma subsampling : 4:2:0
  20. Bit depth : 8 bits
  21. Scan type : Progressive
  22. Bits/(Pixel*Frame) : 0.201
  23. Stream size : 9.28 GiB (97%)
  24. Title : Deadpool.2.2018.Super.Duper.Cut.UNRATED.1080p.AMZN.WEBRip.DDP5.1.x264-ION10
  25. Language : English
  26. Default : Yes
  27. Forced : No
  28. Color range : Limited
  29. Color primaries : BT.709
  30. Transfer characteristics : BT.709
  31. Matrix coefficients : BT.709

  32. Audio
  33. ID : 2
  34. Format : E-AC-3
  35. Format/Info : Enhanced Audio Coding 3
  36. Codec ID : A_EAC3
  37. Duration : 2 h 14 min
  38. Bit rate mode : Constant
  39. Bit rate : 256 kb/s
  40. Channel(s) : 6 channels
  41. Channel positions : Front: L C R, Side: L R, LFE
  42. Sampling rate : 48.0 kHz
  43. Frame rate : 187.500 FPS (256 SPF)
  44. Compression mode : Lossy
  45. Stream size : 245 MiB (3%)
  46. Title : Deadpool.2.2018.Super.Duper.Cut.UNRATED.1080p.AMZN.WEBRip.DDP5.1.x264-ION10
  47. Language : English
  48. Service kind : Complete Main
  49. Default : Yes
  50. Forced : No

  51. Text
  52. ID : 3
  53. Format : UTF-8
  54. Codec ID : S_TEXT/UTF8
  55. Codec ID/Info : UTF-8 Plain Text
  56. Duration : 2 h 13 min
  57. Bit rate : 69 b/s
  58. Count of elements : 2427
  59. Stream size : 67.5 KiB (0%)
  60. Language : English
  61. Default : No
  62. Forced : No
复制代码
游客,如果您要查看本帖隐藏内容请回复
回复

使用道具 举报

人气偶像

高清币
3
金钱
1221
鲜花
0
在线时间
272 小时
最后登录
2018-12-11
发表于 2018-8-7 16:33:09 | 显示全部楼层
每天都来中国高清论坛看看有什么电影!
回复 支持 反对

使用道具 举报

天王巨星

高清币
453
金钱
2152
鲜花
0
在线时间
505 小时
最后登录
2018-12-8
发表于 2018-8-7 16:34:02 | 显示全部楼层
每天都来中国高清论坛看看有什么电影!
回复 支持 反对

使用道具 举报

知名艺人

高清币
7
金钱
449
鲜花
0
在线时间
53 小时
最后登录
2018-12-7
发表于 2018-8-7 16:34:08 | 显示全部楼层
好片不断啊,感谢分享。
回复 支持 反对

使用道具 举报

永恒神话

高清币
9211
金钱
15939
鲜花
0
在线时间
1702 小时
最后登录
2018-12-12
发表于 2018-8-7 16:35:04 | 显示全部楼层
感谢楼主分享
回复 支持 反对

使用道具 举报

超级明星

高清币
709
金钱
6678
鲜花
0
在线时间
2417 小时
最后登录
2018-12-11
发表于 2018-8-7 16:35:14 | 显示全部楼层
大招何时来呢?
回复 支持 反对

使用道具 举报

人气偶像

高清币
6
金钱
843
鲜花
0
在线时间
217 小时
最后登录
2018-12-9
发表于 2018-8-7 16:36:31 | 显示全部楼层
谢谢楼主分享!非常感谢!!
回复 支持 反对

使用道具 举报

金鸡奖主角

高清币
662
金钱
4552
鲜花
0
在线时间
996 小时
最后登录
2018-12-11
发表于 2018-8-7 16:37:22 | 显示全部楼层
我看不错噢 谢谢楼主!
回复 支持 反对

使用道具 举报

好莱坞明星

高清币
2213
金钱
4471
鲜花
0
在线时间
507 小时
最后登录
2018-12-11
发表于 2018-8-7 16:37:26 | 显示全部楼层
每天都来中国高清论坛看看有什么电影!
回复 支持 反对

使用道具 举报

金鸡奖主角

高清币
266
金钱
4056
鲜花
0
在线时间
629 小时
最后登录
2018-12-12
发表于 2018-8-7 16:37:27 | 显示全部楼层
每天都来中国高清论坛看看有什么电影!
回复 支持 反对

使用道具 举报

懒得打字嘛,点击右侧快捷回复 【右侧内容,后台自定义】
您需要登录后才可以回帖 登录 | 立即注册

本版积分规则

QQ|手机版|小黑屋|中国高清论坛 ( 黔ICP备16007815号-1 )

GMT+8, 2018-12-12 06:49 , Processed in 0.092261 second(s), 31 queries .

Powered by Discuz! X3.4

© 2001-2017 Comsenz Inc.

快速回复 返回顶部 返回列表