请选择 进入手机版 | 继续访问电脑版

中国高清论坛

 找回密码
 立即注册
111
搜索
查看: 57|回复: 7

[科幻片] [补档] [IMDB 7.0分] [豆瓣 7.2分] 钢铁侠2 Iron.Man.2.2010.2160p.BluRay.REMUX.HEVC.DTS-HD.M

[复制链接]
匿名
匿名  发表于 2018-8-10 21:27:11 |阅读模式



◎译  名 钢铁侠2/铁甲奇侠2(港)/钢铁人2(台)/铁人2
◎片  名 Iron Man 2
◎年  代 2010
◎产  地 美国
◎类  别 动作/科幻/冒险
◎语  言 英语/法语/俄语
◎上映日期 2010-05-07(中国大陆/美国)
◎IMDb评分 7.0/10 from 609,808 users
◎IMDb链接 http://www.imdb.com/title/tt1228705/
◎豆瓣评分 7.2/10 from 193,331 users
◎豆瓣链接 https://movie.douban.com/subject/3066739/
◎片  长 124 分钟
◎导  演 乔恩·费儒 Jon Favreau
◎主  演 小罗伯特·唐尼 Robert Downey Jr.
      格温妮斯·帕特洛 Gwyneth Paltrow
      米基·洛克 Mickey Rourke
      斯嘉丽·约翰逊 Scarlett Johansson
      山姆·洛克威尔 Sam Rockwell
      唐·钱德尔 Don Cheadle
      塞缪尔·杰克逊 Samuel L. Jackson
      乔恩·费儒 Jon Favreau
      保罗·贝坦尼 Paul Bettany
      克拉克·格雷格 Clark Gregg
      凯特·玛拉 Kate Mara
      约翰·斯拉特里 John Slattery


◎简  介 

  钢铁侠托尼·斯塔克(小罗伯特·唐尼 Robert Downey Jr. 饰)在国会听证上拒绝交出最新技术。与此同时,他发现胸口的微型电弧反应炉正迅速造成血液的钯金属中毒。沮丧的托尼将斯塔克公司的总裁职务交予了秘书波兹(格温妮丝·帕特罗 Gwyneth Paltrow 饰),由她全权负责正在进行的纽约斯塔克博览会。波兹从法律部门调来助理娜塔莉(斯佳丽·约翰逊 Scarlett Johansson 饰)照顾托尼。托尼在媒体前的高调亮相引起了其父当年同事的儿子,伊凡(米基·洛克 Mickey Rourke 饰)的不满。为了实施报复,他子承父业,研制出了一套可与钢铁战衣相媲美的装备。伊凡的技术引起了托尼的竞争对手,军火商贾斯丁·汉默(山姆·洛克威尔 Sam Rockwell 饰)的注意,他设法将伊凡劫持出狱,秘密研究取代钢铁侠。正当托尼苦于钯金属中毒造成的失意之时,他发现娜塔莉原来身负秘密使命,而自己的任性,也造成了与好友,空军上校罗尼(唐·钱德尔 Don Cheadle 饰)的反目,眼看局势就要失控……


◎获  奖 

  第83届奥斯卡金像奖  (2011)
  最佳视觉效果(提名) 盖德·赖特 / 丹尼尔·萨迪克 / 加内克·西尔斯 / BenSnow
  
  第20届MTV电影奖  (2011)
  MTV电影奖最佳反派(提名) 米基·洛克
  
  第12届美国青少年选择奖  (2010)
  最佳科幻电影(提名)
  最佳科幻电影男演员(提名) 小罗伯特·唐尼
  最佳科幻电影女演员(提名) 斯嘉丽·约翰逊 / 格温妮斯·帕特洛
  最佳电影舞蹈(提名) 小罗伯特·唐尼
  最佳电影反派(提名) 米基·洛克
  最佳电影打斗(提名) 小罗伯特·唐尼 / 唐·钱德尔

  1.       


  2. Video
  3. ID : 1
  4. Format : HEVC
  5. Format/Info : High Efficiency Video Coding
  6. Format profile : Main 10@L5.1@High
  7. Codec ID : V_MPEGH/ISO/HEVC
  8. Duration : 2 h 4 min
  9. Bit rate : 56.0 Mb/s
  10. Width : 3 840 pixels
  11. Height : 2 160 pixels
  12. Display aspect ratio : 16:9
  13. Frame rate mode : Constant
  14. Frame rate : 23.976 (24000/1001) FPS
  15. Original frame rate : 23.976 (23976/1000) FPS
  16. Standard : Component
  17. Color space : YUV
  18. Chroma subsampling : 4:2:0 (Type 2)
  19. Bit depth : 10 bits
  20. Bits/(Pixel*Frame) : 0.282
  21. Stream size : 48.9 GiB (89%)
  22. Title : Iron.Man.2.2010.2160p.BluRay.REMUX.HEVC.DTS-HD.MA.5.1-FGT
  23. Language : English
  24. Default : Yes
  25. Forced : No
  26. Color range : Limited
  27. Color primaries : BT.2020
  28. Transfer characteristics : SMPTE ST 2084
  29. Matrix coefficients : BT.2020 non-constant
  30. Mastering display color primaries : R: x=0.680000 y=0.320000, G: x=0.265000 y=0.690000, B: x=0.150000 y=0.060000, White point: x=0.312700 y=0.329000
  31. Mastering display luminance : min: 0.0050 cd/m2, max: 1000.0000 cd/m2

  32. Audio #1
  33. ID : 2
  34. Format : DTS
  35. Format/Info : Digital Theater Systems
  36. Format profile : MA / Core
  37. Mode : 16
  38. Format settings, Endianness : Big
  39. Codec ID : A_DTS
  40. Duration : 2 h 4 min
  41. Bit rate mode : Variable / Constant
  42. Bit rate : 2 959 kb/s / 1 509 kb/s
  43. Channel(s) : 6 channels
  44. Channel positions : Front: L C R, Side: L R, LFE
  45. Sampling rate : 48.0 kHz
  46. Frame rate : 93.750 FPS (512 spf)
  47. Bit depth : 24 bits
  48. Compression mode : Lossless / Lossy
  49. Stream size : 2.58 GiB (5%)
  50. Title : Iron.Man.2.2010.2160p.BluRay.REMUX.HEVC.DTS-HD.MA.5.1-FGT
  51. Language : English
  52. Default : Yes
  53. Forced : No

  54. Audio #2
  55. ID : 3
  56. Format : DTS
  57. Format/Info : Digital Theater Systems
  58. Format profile : MA / Core
  59. Mode : 16
  60. Format settings, Endianness : Big
  61. Codec ID : A_DTS
  62. Duration : 2 h 4 min
  63. Bit rate mode : Variable / Constant
  64. Bit rate : 3 976 kb/s / 1 509 kb/s
  65. Channel(s) : 6 channels
  66. Channel positions : Front: L C R, Side: L R, LFE
  67. Sampling rate : 48.0 kHz
  68. Frame rate : 93.750 FPS (512 spf)
  69. Bit depth : 24 bits
  70. Compression mode : Lossless / Lossy
  71. Stream size : 3.47 GiB (6%)
  72. Title : Iron.Man.2.2010.2160p.BluRay.REMUX.HEVC.DTS-HD.MA.5.1-FGT
  73. Language : German
  74. Default : No
  75. Forced : No

  76. Audio #3
  77. ID : 4
  78. Format : AC-3
  79. Format/Info : Audio Coding 3
  80. Format settings, Endianness : Big
  81. Codec ID : A_AC3
  82. Duration : 2 h 4 min
  83. Bit rate mode : Constant
  84. Bit rate : 224 kb/s
  85. Channel(s) : 2 channels
  86. Channel positions : Front: L R
  87. Sampling rate : 48.0 kHz
  88. Frame rate : 31.250 FPS (1536 spf)
  89. Bit depth : 16 bits
  90. Compression mode : Lossy
  91. Stream size : 200 MiB (0%)
  92. Title : Iron.Man.2.2010.2160p.BluRay.REMUX.HEVC.DTS-HD.MA.5.1-FGT
  93. Language : English
  94. Service kind : Complete Main
  95. Default : No
  96. Forced : No

  97. Text #1
  98. ID : 5
  99. Format : PGS
  100. Muxing mode : zlib
  101. Codec ID : S_HDMV/PGS
  102. Codec ID/Info : Picture based subtitle format used on BDs/HD-DVDs
  103. Duration : 2 h 4 min
  104. Bit rate : 34.5 kb/s
  105. Count of elements : 2408
  106. Stream size : 30.7 MiB (0%)
  107. Title : German-PGS
  108. Language : German
  109. Default : Yes
  110. Forced : No

  111. Text #2
  112. ID : 6
  113. Format : PGS
  114. Muxing mode : zlib
  115. Codec ID : S_HDMV/PGS
  116. Codec ID/Info : Picture based subtitle format used on BDs/HD-DVDs
  117. Duration : 2 h 4 min
  118. Bit rate : 42.8 kb/s
  119. Count of elements : 2834
  120. Stream size : 38.1 MiB (0%)
  121. Title : German-SDH-PGS
  122. Language : German
  123. Default : No
  124. Forced : No

  125. Text #3
  126. ID : 7
  127. Format : PGS
  128. Muxing mode : zlib
  129. Codec ID : S_HDMV/PGS
  130. Codec ID/Info : Picture based subtitle format used on BDs/HD-DVDs
  131. Duration : 2 h 4 min
  132. Bit rate : 59.6 kb/s
  133. Count of elements : 3799
  134. Stream size : 53.1 MiB (0%)
  135. Title : German-COMMENTARY-PGS
  136. Language : German
  137. Default : No
  138. Forced : No

  139. Text #4
  140. ID : 8
  141. Format : PGS
  142. Muxing mode : zlib
  143. Codec ID : S_HDMV/PGS
  144. Codec ID/Info : Picture based subtitle format used on BDs/HD-DVDs
  145. Duration : 1 h 40 min
  146. Bit rate : 164 b/s
  147. Count of elements : 10
  148. Stream size : 121 KiB (0%)
  149. Title : German-FORCED-PGS
  150. Language : German
  151. Default : No
  152. Forced : No

  153. Menu
  154. 00:00:00.000 : en:Chapter 1
  155. 00:05:25.157 : en:Chapter 2
  156. 00:11:28.855 : en:Chapter 3
  157. 00:18:20.641 : en:Chapter 4
  158. 00:26:13.697 : en:Chapter 5
  159. 00:30:47.470 : en:Chapter 6
  160. 00:37:53.688 : en:Chapter 7
  161. 00:44:20.825 : en:Chapter 8
  162. 00:52:00.033 : en:Chapter 9
  163. 01:00:31.544 : en:Chapter 10
  164. 01:07:22.205 : en:Chapter 11
  165. 01:16:21.451 : en:Chapter 12
  166. 01:21:33.971 : en:Chapter 13
  167. 01:30:54.240 : en:Chapter 14
  168. 01:39:10.026 : en:Chapter 15
  169. 01:46:02.481 : en:Chapter 16
  170. 01:54:38.038 : en:Chapter 17
  171. 01:56:30.858 : en:Chapter 18





复制代码

购买主题 本主题需向作者支付 1 高清币 才能浏览
回复

使用道具 举报

好莱坞明星

高清币
2074
金钱
3232
鲜花
0
在线时间
321 小时
最后登录
2018-12-11
发表于 2018-8-28 09:44:32 | 显示全部楼层
此帖仅作者可见

使用道具 举报

superstar

高清币
4822
金钱
6683
鲜花
0
在线时间
518 小时
最后登录
2018-12-9
发表于 2018-8-27 02:50:24 | 显示全部楼层
此帖仅作者可见

使用道具 举报

superstar

高清币
6393
金钱
6576
鲜花
0
在线时间
370 小时
最后登录
2018-10-8
发表于 2018-8-26 10:58:13 | 显示全部楼层
此帖仅作者可见

使用道具 举报

知名艺人

高清币
1
金钱
372
鲜花
0
在线时间
34 小时
最后登录
2018-12-10
发表于 2018-8-26 08:42:46 | 显示全部楼层
此帖仅作者可见

使用道具 举报

天王巨星

高清币
2
金钱
2787
鲜花
0
在线时间
431 小时
最后登录
2018-12-2
发表于 2018-8-17 22:12:09 | 显示全部楼层
此帖仅作者可见

使用道具 举报

金鸡奖主角

高清币
26
金钱
3974
鲜花
0
在线时间
681 小时
最后登录
2018-12-3
发表于 2018-8-12 16:14:01 | 显示全部楼层
此帖仅作者可见

使用道具 举报

天王巨星

高清币
566
金钱
1895
鲜花
0
在线时间
381 小时
最后登录
2018-12-11
发表于 2018-8-12 07:10:52 | 显示全部楼层
此帖仅作者可见

使用道具 举报

懒得打字嘛,点击右侧快捷回复 【右侧内容,后台自定义】
您需要登录后才可以回帖 登录 | 立即注册

本版积分规则

QQ|手机版|小黑屋|中国高清论坛 ( 黔ICP备16007815号-1 )

GMT+8, 2018-12-12 06:33 , Processed in 0.123950 second(s), 29 queries .

Powered by Discuz! X3.4

© 2001-2017 Comsenz Inc.

快速回复 返回顶部 返回列表