请选择 进入手机版 | 继续访问电脑版

中国高清论坛

 找回密码
 立即注册
111
搜索
查看: 31|回复: 5

[犯罪片] [补档] [IMDB 6.1分] [豆瓣 6.2分] 自杀小队 Suicide.Squad.2016.THEATRICAL.2160p.BluRay.x264.

[复制链接]
匿名
匿名  发表于 2018-8-10 21:28:03 |阅读模式



◎译  名 自杀小队/自杀特攻:超能暴队(港)/自杀突击队(台)/X特遣队/犯罪敢死队/Task Force X/Bravo 14
◎片  名 Suicide Squad
◎年  代 2016
◎产  地 美国
◎类  别 动作/犯罪/奇幻
◎语  言 英语/日语/西班牙语
◎上映日期 2016-08-05(美国)
◎IMDb评分 6.1/10 from 488,137 users
◎IMDb链接 http://www.imdb.com/title/tt1386697/
◎豆瓣评分 6.2/10 from 118,629 users
◎豆瓣链接 https://movie.douban.com/subject/3569910/
◎片  长 123分钟
◎导  演 大卫·阿耶 David Ayer
◎主  演 威尔·史密斯 Will Smith
      杰瑞德·莱托 Jared Leto
      玛格特·罗比 Margot Robbie
      乔尔·金纳曼 Joel Kinnaman
      维奥拉·戴维斯 Viola Davis
      本·阿弗莱克 Ben Affleck
      杰·科特尼 Jai Courtney
      卡拉·迪瓦伊 Cara Delevingne
      杰伊·赫尔南德兹 Jay Hernandez
      斯科特·伊斯特伍德 Scott Eastwood
      阿德沃尔·阿吉纽依-艾格拜吉 Adewale Akinnuoye-Agbaje
      埃兹拉·米勒 Ezra Miller
      科曼 Common
      亚当·比奇 Adam Beach
      吉姆·帕拉克 Jim Parrack
      伊克·巴里霍尔兹 Ike Barinholtz
      亚历克斯·梅拉兹 Alex Meraz
      凯伦·福原爱 Karen Fukuhara
      雷蒙德·奥鲁巴维尔 Raymond Olubawale


◎简  介 

  阿曼达(维奥拉·戴维斯 Viola Davis 饰)身为政府秘密机构的领导人,面对社会中出现的层出不穷的暴力恐怖袭击事件,决心启用一批被关押在监狱中判了无期徒刑的超级反派们,他们是小丑女(玛歌特·罗比 Margot Robbie 饰)、死亡射手(威尔·史密斯 Will Smith 饰)、回旋镖队长(杰·科特尼 Jai Courtney 饰)、复仇恶魔(杰伊·赫尔南德兹 Jay Hernandez 饰)和杀手鳄(阿德沃尔·阿吉纽依-艾格拜吉 Adewale Akinnuoye-Agbaje 饰)。
  他们所要面对的,是拥有强大法力的魅巫(卡拉·迪瓦伊 Cara Delevingne 饰),她和她的哥哥一起制造了一种非常危险的武器,企图用此控制全人类。除此之外,阿曼达还必须提防为了解救女友小丑女而不惜一切手段的危险人物小丑(杰瑞德·莱托 Jared Leto 饰)。


◎获  奖 

  第89届奥斯卡金像奖  (2017)
  最佳化妆与发型设计 GiorgioGregorini / 克里斯托弗·艾伦·尼尔森 / AlessandroBertolazzi
  
  第37届金酸莓奖  (2017)
  最差男配角(提名) 杰瑞德·莱托
  最差剧本(提名)
  
  第26届MTV电影奖  (2017)
  MTV电影奖最佳反派(提名) 杰瑞德·莱托
  
  第22届美国评论家选择电影奖  (2017)
  动作片最佳女主角 玛格特·罗比
  
  第3届豆瓣电影年度榜单  (2016)
  最受关注的非院线电影(提名)

  1. SWEATY BALLZ presents

  2. Suicide.Squad.2016.THEATRICAL.2160p.BluRay.x265.10bit.SDR.DTS-HD.MA.TrueHD.7.1.Atmos-SWTYBLZ

  3. Converted from 10 bit HDR to 8 bit SDR using tripple mixed Hable-Reinhard-JJ per scene+frame analysis algorithm

  4.       


  5. Video
  6. ID : 1
  7. Format : AVC
  8. Format/Info : Advanced Video Codec
  9. Format profile : High@L5.1
  10. Format settings, CABAC : Yes
  11. Format settings, ReFrames : 5 frames
  12. Codec ID : V_MPEG4/ISO/AVC
  13. Duration : 2 h 2 min
  14. Bit rate : 27.9 Mb/s
  15. Width : 3 840 pixels
  16. Height : 1 600 pixels
  17. Display aspect ratio : 2.40:1
  18. Frame rate mode : Constant
  19. Frame rate : 23.976 (24000/1001) FPS
  20. Color space : YUV
  21. Chroma subsampling : 4:2:0
  22. Bit depth : 8 bits
  23. Scan type : Progressive
  24. Bits/(Pixel*Frame) : 0.189
  25. Stream size : 23.9 GiB (78%)
  26. Title : Suicide.Squad.2016.THEATRICAL.2160p.BluRay.x264.8bit.SDR.DTS-HD.MA.TrueHD.7.1.Atmos-SWTYBLZ
  27. Writing library : x264 core 148 r2748 97eaef2
  28. Encoding settings : cabac=1 / ref=5 / deblock=1:-1:-1 / analyse=0x3:0x113 / me=umh / subme=10 / psy=1 / psy_rd=1.00:0.15 / mixed_ref=1 / me_range=48 / chroma_me=1 / trellis=2 / 8x8dct=1 / cqm=0 / deadzone=21,11 / fast_pskip=1 / chroma_qp_offset=-3 / threads=50 / lookahead_threads=4 / sliced_threads=0 / nr=0 / decimate=0 / interlaced=0 / bluray_compat=0 / constrained_intra=0 / bframes=3 / b_pyramid=2 / b_adapt=2 / b_bias=0 / direct=3 / weightb=1 / open_gop=0 / weightp=2 / keyint=250 / keyint_min=23 / scenecut=40 / intra_refresh=0 / rc_lookahead=50 / rc=crf / mbtree=1 / crf=18.0 / qcomp=0.60 / qpmin=0 / qpmax=69 / qpstep=4 / ip_ratio=1.40 / aq=1:1.00
  29. Language : English
  30. Default : Yes
  31. Forced : No

  32. Audio #1
  33. ID : 2
  34. Format : TrueHD
  35. Format profile : TrueHD+Atmos / TrueHD
  36. Codec ID : A_TRUEHD
  37. Duration : 2 h 2 min
  38. Bit rate mode : Variable
  39. Bit rate : 3 800 kb/s
  40. Maximum bit rate : 5 847 kb/s
  41. Channel(s) : Object Based / 8 channels
  42. Channel positions : Object Based / Front: L C R, Side: L R, Back: L R, LFE
  43. Frame rate : 1 200.000 FPS (40 spf)
  44. Compression mode : Lossless
  45. Stream size : 3.26 GiB (11%)
  46. Title : Suicide.Squad.2016.THEATRICAL.2160p.BluRay.x264.8bit.SDR.DTS-HD.MA.TrueHD.7.1.Atmos-SWTYBLZ
  47. Language : English
  48. Default : Yes
  49. Forced : No

  50. Audio #2
  51. ID : 3
  52. Format : DTS
  53. Format/Info : Digital Theater Systems
  54. Format profile : MA / Core
  55. Mode : 16
  56. Format settings, Endianness : Big
  57. Codec ID : A_DTS
  58. Duration : 2 h 2 min
  59. Bit rate mode : Variable / Constant
  60. Bit rate : 3 690 kb/s / 1 509 kb/s
  61. Channel(s) : 8 channels / 6 channels
  62. Channel positions : Front: L C R, Side: L R, Back: L R, LFE / Front: L C R, Side: L R, LFE
  63. Sampling rate : 48.0 kHz
  64. Frame rate : 93.750 FPS (512 spf)
  65. Bit depth : 24 bits
  66. Compression mode : Lossless / Lossy
  67. Stream size : 3.17 GiB (10%)
  68. Title : Suicide.Squad.2016.THEATRICAL.2160p.BluRay.x264.8bit.SDR.DTS-HD.MA.TrueHD.7.1.Atmos-SWTYBLZ
  69. Language : English
  70. Default : No
  71. Forced : No

  72. Audio #3
  73. ID : 4
  74. Format : AC-3
  75. Format/Info : Audio Coding 3
  76. Format settings, Endianness : Big
  77. Codec ID : A_AC3
  78. Duration : 2 h 2 min
  79. Bit rate mode : Constant
  80. Bit rate : 640 kb/s
  81. Channel(s) : 6 channels
  82. Channel positions : Front: L C R, Side: L R, LFE
  83. Sampling rate : 48.0 kHz
  84. Frame rate : 31.250 FPS (1536 spf)
  85. Bit depth : 16 bits
  86. Compression mode : Lossy
  87. Stream size : 338 MiB (1%)
  88. Title : Suicide.Squad.2016.THEATRICAL.2160p.BluRay.x264.8bit.SDR.DTS-HD.MA.TrueHD.7.1.Atmos-SWTYBLZ
  89. Language : English
  90. Service kind : Complete Main
  91. Default : No
  92. Forced : No

  93. Text #1
  94. ID : 5
  95. Format : UTF-8
  96. Codec ID : S_TEXT/UTF8
  97. Codec ID/Info : UTF-8 Plain Text
  98. Duration : 2 h 2 min
  99. Bit rate : 44 b/s
  100. Count of elements : 1321
  101. Stream size : 39.8 KiB (0%)
  102. Title : English-SRT
  103. Language : English
  104. Default : Yes
  105. Forced : No

  106. Text #2
  107. ID : 6
  108. Format : PGS
  109. Muxing mode : zlib
  110. Codec ID : S_HDMV/PGS
  111. Codec ID/Info : Picture based subtitle format used on BDs/HD-DVDs
  112. Duration : 2 h 2 min
  113. Bit rate : 30.5 kb/s
  114. Count of elements : 3228
  115. Stream size : 26.7 MiB (0%)
  116. Title : English-PGS
  117. Language : English
  118. Default : No
  119. Forced : No

  120. Text #3
  121. ID : 7
  122. Format : PGS
  123. Muxing mode : zlib
  124. Codec ID : S_HDMV/PGS
  125. Codec ID/Info : Picture based subtitle format used on BDs/HD-DVDs
  126. Duration : 1 h 55 min
  127. Bit rate : 17.7 kb/s
  128. Count of elements : 2631
  129. Stream size : 14.6 MiB (0%)
  130. Title : Japanese-PGS
  131. Language : Japanese
  132. Default : No
  133. Forced : No

  134. Text #4
  135. ID : 8
  136. Format : PGS
  137. Muxing mode : zlib
  138. Codec ID : S_HDMV/PGS
  139. Codec ID/Info : Picture based subtitle format used on BDs/HD-DVDs
  140. Duration : 2 h 2 min
  141. Bit rate : 22.9 kb/s
  142. Count of elements : 2720
  143. Stream size : 20.0 MiB (0%)
  144. Title : French-PGS
  145. Language : French
  146. Default : No
  147. Forced : No

  148. Text #5
  149. ID : 9
  150. Format : PGS
  151. Muxing mode : zlib
  152. Codec ID : S_HDMV/PGS
  153. Codec ID/Info : Picture based subtitle format used on BDs/HD-DVDs
  154. Duration : 2 h 2 min
  155. Bit rate : 29.5 kb/s
  156. Count of elements : 3296
  157. Stream size : 25.9 MiB (0%)
  158. Title : Italian-PGS
  159. Language : Italian
  160. Default : No
  161. Forced : No

  162. Text #6
  163. ID : 10
  164. Format : PGS
  165. Muxing mode : zlib
  166. Codec ID : S_HDMV/PGS
  167. Codec ID/Info : Picture based subtitle format used on BDs/HD-DVDs
  168. Duration : 2 h 2 min
  169. Bit rate : 25.3 kb/s
  170. Count of elements : 2896
  171. Stream size : 22.2 MiB (0%)
  172. Title : Spanish-PGS
  173. Language : Spanish
  174. Default : No
  175. Forced : No

  176. Text #7
  177. ID : 11
  178. Format : PGS
  179. Muxing mode : zlib
  180. Codec ID : S_HDMV/PGS
  181. Codec ID/Info : Picture based subtitle format used on BDs/HD-DVDs
  182. Duration : 2 h 2 min
  183. Bit rate : 26.3 kb/s
  184. Count of elements : 2908
  185. Stream size : 23.0 MiB (0%)
  186. Title : Chinese-PGS
  187. Language : Chinese
  188. Default : No
  189. Forced : No

  190. Text #8
  191. ID : 12
  192. Format : PGS
  193. Muxing mode : zlib
  194. Codec ID : S_HDMV/PGS
  195. Codec ID/Info : Picture based subtitle format used on BDs/HD-DVDs
  196. Duration : 2 h 2 min
  197. Bit rate : 22.2 kb/s
  198. Count of elements : 2952
  199. Stream size : 19.4 MiB (0%)
  200. Title : Chinese-PGS
  201. Language : Chinese
  202. Default : No
  203. Forced : No

  204. Text #9
  205. ID : 13
  206. Format : PGS
  207. Muxing mode : zlib
  208. Codec ID : S_HDMV/PGS
  209. Codec ID/Info : Picture based subtitle format used on BDs/HD-DVDs
  210. Duration : 2 h 2 min
  211. Bit rate : 16.0 kb/s
  212. Count of elements : 2896
  213. Stream size : 14.0 MiB (0%)
  214. Title : Korean-PGS
  215. Language : Korean
  216. Default : No
  217. Forced : No

  218. Text #10
  219. ID : 14
  220. Format : PGS
  221. Muxing mode : zlib
  222. Codec ID : S_HDMV/PGS
  223. Codec ID/Info : Picture based subtitle format used on BDs/HD-DVDs
  224. Duration : 2 h 2 min
  225. Bit rate : 26.0 kb/s
  226. Count of elements : 2940
  227. Stream size : 22.8 MiB (0%)
  228. Title : Spanish-PGS
  229. Language : Spanish
  230. Default : No
  231. Forced : No

  232. Text #11
  233. ID : 15
  234. Format : PGS
  235. Muxing mode : zlib
  236. Codec ID : S_HDMV/PGS
  237. Codec ID/Info : Picture based subtitle format used on BDs/HD-DVDs
  238. Duration : 2 h 2 min
  239. Bit rate : 26.8 kb/s
  240. Count of elements : 2948
  241. Stream size : 23.5 MiB (0%)
  242. Title : Portuguese-PGS
  243. Language : Portuguese
  244. Default : No
  245. Forced : No

  246. Text #12
  247. ID : 16
  248. Format : PGS
  249. Muxing mode : zlib
  250. Codec ID : S_HDMV/PGS
  251. Codec ID/Info : Picture based subtitle format used on BDs/HD-DVDs
  252. Duration : 2 h 2 min
  253. Bit rate : 13.7 kb/s
  254. Count of elements : 2780
  255. Stream size : 12.0 MiB (0%)
  256. Title : Arabic-PGS
  257. Language : Arabic
  258. Default : No
  259. Forced : No

  260. Text #13
  261. ID : 17
  262. Format : PGS
  263. Muxing mode : zlib
  264. Codec ID : S_HDMV/PGS
  265. Codec ID/Info : Picture based subtitle format used on BDs/HD-DVDs
  266. Duration : 2 h 2 min
  267. Bit rate : 20.5 kb/s
  268. Count of elements : 2928
  269. Stream size : 18.0 MiB (0%)
  270. Title : Czech-PGS
  271. Language : Czech
  272. Default : No
  273. Forced : No

  274. Text #14
  275. ID : 18
  276. Format : PGS
  277. Muxing mode : zlib
  278. Codec ID : S_HDMV/PGS
  279. Codec ID/Info : Picture based subtitle format used on BDs/HD-DVDs
  280. Duration : 2 h 2 min
  281. Bit rate : 23.3 kb/s
  282. Count of elements : 2138
  283. Stream size : 20.4 MiB (0%)
  284. Title : Danish-PGS
  285. Language : Danish
  286. Default : No
  287. Forced : No

  288. Text #15
  289. ID : 19
  290. Format : PGS
  291. Muxing mode : zlib
  292. Codec ID : S_HDMV/PGS
  293. Codec ID/Info : Picture based subtitle format used on BDs/HD-DVDs
  294. Duration : 2 h 2 min
  295. Bit rate : 24.1 kb/s
  296. Count of elements : 2762
  297. Stream size : 21.1 MiB (0%)
  298. Title : Finnish-PGS
  299. Language : Finnish
  300. Default : No
  301. Forced : No

  302. Text #16
  303. ID : 20
  304. Format : PGS
  305. Muxing mode : zlib
  306. Codec ID : S_HDMV/PGS
  307. Codec ID/Info : Picture based subtitle format used on BDs/HD-DVDs
  308. Duration : 2 h 2 min
  309. Bit rate : 23.5 kb/s
  310. Count of elements : 2554
  311. Stream size : 20.6 MiB (0%)
  312. Title : Norwegian-PGS
  313. Language : Norwegian
  314. Default : No
  315. Forced : No

  316. Text #17
  317. ID : 21
  318. Format : PGS
  319. Muxing mode : zlib
  320. Codec ID : S_HDMV/PGS
  321. Codec ID/Info : Picture based subtitle format used on BDs/HD-DVDs
  322. Duration : 2 h 2 min
  323. Bit rate : 22.1 kb/s
  324. Count of elements : 2898
  325. Stream size : 19.4 MiB (0%)
  326. Title : Polish-PGS
  327. Language : Polish
  328. Default : No
  329. Forced : No

  330. Text #18
  331. ID : 22
  332. Format : PGS
  333. Muxing mode : zlib
  334. Codec ID : S_HDMV/PGS
  335. Codec ID/Info : Picture based subtitle format used on BDs/HD-DVDs
  336. Duration : 2 h 2 min
  337. Bit rate : 25.8 kb/s
  338. Count of elements : 2944
  339. Stream size : 22.6 MiB (0%)
  340. Title : Swedish-PGS
  341. Language : Swedish
  342. Default : No
  343. Forced : No

  344. Menu
  345. 00:00:00.000 : en:Chapter 1
  346. 00:09:07.505 : en:Chapter 2
  347. 00:19:03.725 : en:Chapter 3
  348. 00:29:27.140 : en:Chapter 4
  349. 00:39:17.313 : en:Chapter 5
  350. 00:50:21.226 : en:Chapter 6
  351. 01:00:10.106 : en:Chapter 7
  352. 01:11:46.927 : en:Chapter 8
  353. 01:22:46.127 : en:Chapter 9
  354. 01:32:01.098 : en:Chapter 10
  355. 01:39:21.830 : en:Chapter 11
  356. 01:52:27.991 : en:Chapter 12





复制代码

购买主题 本主题需向作者支付 1 高清币 才能浏览
回复

使用道具 举报

人气偶像

高清币
22
金钱
1519
鲜花
0
在线时间
232 小时
最后登录
2018-12-11
发表于 2018-8-12 11:18:35 | 显示全部楼层
此帖仅作者可见

使用道具 举报

人气偶像

高清币
22
金钱
1519
鲜花
0
在线时间
232 小时
最后登录
2018-12-11
发表于 2018-8-12 11:18:03 | 显示全部楼层
此帖仅作者可见

使用道具 举报

人气偶像

高清币
22
金钱
1519
鲜花
0
在线时间
232 小时
最后登录
2018-12-11
发表于 2018-8-12 11:17:45 | 显示全部楼层
此帖仅作者可见

使用道具 举报

人气偶像

高清币
22
金钱
1519
鲜花
0
在线时间
232 小时
最后登录
2018-12-11
发表于 2018-8-12 11:17:23 | 显示全部楼层
此帖仅作者可见

使用道具 举报

天王巨星

高清币
566
金钱
1895
鲜花
0
在线时间
381 小时
最后登录
2018-12-11
发表于 2018-8-12 06:43:41 | 显示全部楼层
此帖仅作者可见

使用道具 举报

懒得打字嘛,点击右侧快捷回复 【右侧内容,后台自定义】
您需要登录后才可以回帖 登录 | 立即注册

本版积分规则

QQ|手机版|小黑屋|中国高清论坛 ( 黔ICP备16007815号-1 )

GMT+8, 2018-12-12 07:06 , Processed in 0.084116 second(s), 29 queries .

Powered by Discuz! X3.4

© 2001-2017 Comsenz Inc.

快速回复 返回顶部 返回列表