请选择 进入手机版 | 继续访问电脑版

中国高清论坛

 找回密码
 立即注册
搜索
查看: 2656|回复: 472

[科幻片] 升级 Upgrade.2018.1080p.BluRay.x264.DTS-HD.MA.5.1-FGT 9.20GB

  [复制链接]

超级版主

高清币
984670
金钱
31284
鲜花
2
在线时间
4178 小时
最后登录
2018-12-19
发表于 2018-8-21 06:48:11 | 显示全部楼层 |阅读模式


◎译  名 升级
◎片  名 Upgrade
◎年  代 2018
◎产  地 澳大利亚
◎类  别 动作 / 科幻 / 惊悚
◎语  言 英语
◎上映日期 2018-03-10(西南偏南电影节) / 2018-06-01(美国)
◎IMDb评分  7.7/10 from 196,225 users
◎IMDb链接  https://www.imdb.com/title/tt6499752/
◎豆瓣评分 8.1/10 from 450 users
◎豆瓣链接 https://movie.douban.com/subject/27093707/
◎片  长 95分钟
◎导  演 雷·沃纳尔
◎主  演 罗根·马歇尔-格林
      Richard Anastasios
      Rosco Campbell
      理查德·考索恩
      Linda Cropper
      Michael M. Foster
      贝蒂·加布里埃尔
      Renah Gallagher
      哈里森·吉尔伯特森
      本尼迪克·哈迪
      Clayton Jacobson
      Sachin Joab
      克里斯托弗·卡比
      Simon Maiden
      梅拉里·沃列何
      Douglas Embry
      Liam Howarth

◎简  介

           讲北美口碑科幻恐怖片,IMDB7.7分,烂番茄85%。本片由”恐怖制造机”Blumhouse制作公司继《分裂》《逃出绝命镇》《鬼影实录》系列《忌日快乐》《真心话大冒险》之后的新作,雷·沃纳尔自编自导,本片被描述成一部“纯粹的肾上腺身体恐怖片”,出演过《普罗米修斯》的罗根·马歇尔-格林担任男主角,《逃出绝命镇》的贝蒂·加布里埃尔也加盟了本片,该片讲述厌恶机械自动化的格雷,在妻子死后、自己瘫痪后被植入替代大脑的“智脑”,实施复仇计划,但幕后黑手却超出所有人的想象述男主角妻子被谋杀后,他的肉体被改造强化,成为一个身备AI、小刀等各种工具的杀人机器。



  1. Video
  2. ID : 1
  3. Format : AVC
  4. Format/Info : Advanced Video Codec
  5. Format profile : High@L4.1
  6. Format settings : CABAC / 5 Ref Frames
  7. Format settings, CABAC : Yes
  8. Format settings, ReFrames : 5 frames
  9. Codec ID : V_MPEG4/ISO/AVC
  10. Duration : 1 h 39 min
  11. Bit rate : 9 455 kb/s
  12. Width : 1 920 pixels
  13. Height : 808 pixels
  14. Display aspect ratio : 2.40:1
  15. Frame rate mode : Constant
  16. Frame rate : 23.976 (24000/1001) FPS
  17. Color space : YUV
  18. Chroma subsampling : 4:2:0
  19. Bit depth : 8 bits
  20. Scan type : Progressive
  21. Bits/(Pixel*Frame) : 0.254
  22. Stream size : 6.60 GiB (72%)
  23. Title : Upgrade.2018.1080p.BluRay.x264.DTS-HD.MA.5.1-FGT
  24. Writing library : x264 core 155 r2901 7d0ff22
  25. Encoding settings : cabac=1 / ref=5 / deblock=1:-3:-3 / analyse=0x3:0x133 / me=umh / subme=8 / psy=1 / psy_rd=1.00:0.00 / mixed_ref=1 / me_range=16 / chroma_me=1 / trellis=1 / 8x8dct=1 / cqm=0 / deadzone=21,11 / fast_pskip=0 / chroma_qp_offset=-2 / threads=25 / lookahead_threads=4 / sliced_threads=0 / nr=0 / decimate=1 / interlaced=0 / bluray_compat=0 / constrained_intra=0 / bframes=3 / b_pyramid=2 / b_adapt=1 / b_bias=0 / direct=3 / weightb=1 / open_gop=0 / weightp=2 / keyint=250 / keyint_min=23 / scenecut=40 / intra_refresh=0 / rc_lookahead=50 / rc=2pass / mbtree=1 / bitrate=9455 / ratetol=1.0 / qcomp=0.60 / qpmin=0 / qpmax=69 / qpstep=4 / cplxblur=20.0 / qblur=0.5 / vbv_maxrate=62500 / vbv_bufsize=78125 / nal_hrd=none / filler=0 / ip_ratio=1.40 / aq=1:1.00
  26. Default : Yes
  27. Forced : No

  28. Audio
  29. ID : 2
  30. Format : DTS
  31. Format/Info : Digital Theater Systems
  32. Format profile : MA / Core
  33. Codec ID : A_DTS
  34. Duration : 1 h 39 min
  35. Bit rate mode : Variable / Constant
  36. Bit rate : 3 689 kb/s / 1 509 kb/s
  37. Channel(s) : 6 channels
  38. Channel positions : Front: L C R, Side: L R, LFE
  39. Sampling rate : 48.0 kHz
  40. Frame rate : 93.750 FPS (512 SPF)
  41. Bit depth : 24 bits
  42. Compression mode : Lossless / Lossy
  43. Stream size : 2.57 GiB (28%)
  44. Title : Upgrade.2018.1080p.BluRay.x264.DTS-HD.MA.5.1-FGT
  45. Language : English
  46. Default : Yes
  47. Forced : No

  48. Text #1
  49. ID : 3
  50. Format : UTF-8
  51. Codec ID : S_TEXT/UTF8
  52. Codec ID/Info : UTF-8 Plain Text
  53. Duration : 1 h 32 min
  54. Bit rate : 52 b/s
  55. Count of elements : 1290
  56. Stream size : 35.7 KiB (0%)
  57. Title : English-SRT
  58. Language : English
  59. Default : Yes
  60. Forced : No

  61. Text #2
  62. ID : 4
  63. Format : PGS
  64. Muxing mode : zlib
  65. Codec ID : S_HDMV/PGS
  66. Codec ID/Info : Picture based subtitle format used on BDs/HD-DVDs
  67. Duration : 1 h 33 min
  68. Bit rate : 39.7 kb/s
  69. Count of elements : 2648
  70. Stream size : 26.5 MiB (0%)
  71. Title : English-PGS
  72. Language : English
  73. Default : No
  74. Forced : No

  75. Text #3
  76. ID : 5
  77. Format : PGS
  78. Muxing mode : zlib
  79. Codec ID : S_HDMV/PGS
  80. Codec ID/Info : Picture based subtitle format used on BDs/HD-DVDs
  81. Duration : 1 h 39 min
  82. Bit rate : 28.7 kb/s
  83. Count of elements : 2108
  84. Stream size : 20.4 MiB (0%)
  85. Title : Spanish-PGS
  86. Language : Spanish
  87. Default : No
  88. Forced : No

  89. Text #4
  90. ID : 6
  91. Format : PGS
  92. Muxing mode : zlib
  93. Codec ID : S_HDMV/PGS
  94. Codec ID/Info : Picture based subtitle format used on BDs/HD-DVDs
  95. Duration : 1 h 39 min
  96. Bit rate : 26.9 kb/s
  97. Count of elements : 2108
  98. Stream size : 19.1 MiB (0%)
  99. Title : French-PGS
  100. Language : French
  101. Default : No
  102. Forced : No

  103. Menu
  104. 00:00:00.000 : en:Chapter 01
  105. 00:05:38.296 : en:Chapter 02
  106. 00:09:04.919 : en:Chapter 03
  107. 00:15:26.550 : en:Chapter 04
  108. 00:18:42.704 : en:Chapter 05
  109. 00:21:43.635 : en:Chapter 06
  110. 00:28:37.465 : en:Chapter 07
  111. 00:34:42.622 : en:Chapter 08
  112. 00:41:17.057 : en:Chapter 09
  113. 00:47:55.539 : en:Chapter 10
  114. 00:51:14.988 : en:Chapter 11
  115. 00:56:58.456 : en:Chapter 12
  116. 01:01:34.565 : en:Chapter 13
  117. 01:05:22.168 : en:Chapter 14
  118. 01:09:10.938 : en:Chapter 15
  119. 01:16:13.235 : en:Chapter 16
  120. 01:20:17.103 : en:Chapter 17
  121. 01:25:41.928 : en:Chapter 18
  122. 01:31:45.249 : en:Chapter 19
  123. 01:33:58.049 : en:Chapter 20
复制代码
游客,如果您要查看本帖隐藏内容请回复

回复

使用道具 举报

金鸡奖主角

高清币
62
金钱
5389
鲜花
0
在线时间
2440 小时
最后登录
2018-12-19
发表于 2018-8-21 06:58:29 | 显示全部楼层
我看不错噢 谢谢楼主!
回复 支持 反对

使用道具 举报

superstar

高清币
4278
金钱
8736
鲜花
0
在线时间
838 小时
最后登录
2018-12-19
发表于 2018-8-21 07:08:58 | 显示全部楼层
谢谢分享~~~~~~
回复 支持 反对

使用道具 举报

金鸡奖主角

高清币
16
金钱
3329
鲜花
0
在线时间
569 小时
最后登录
2018-12-19
发表于 2018-8-21 07:20:48 | 显示全部楼层
谢谢楼主的分享
回复 支持 反对

使用道具 举报

金鸡奖主角

高清币
1
金钱
6328
鲜花
0
在线时间
1811 小时
最后登录
2018-12-19
发表于 2018-8-21 07:28:01 | 显示全部楼层
感谢分享,楼主辛苦了
回复 支持 反对

使用道具 举报

永恒神话

高清币
5658
金钱
16308
鲜花
0
在线时间
3570 小时
最后登录
2018-12-19
发表于 2018-8-21 07:43:50 | 显示全部楼层
每天都来中国高清论坛看看有什么电影!
回复 支持 反对

使用道具 举报

永恒神话

高清币
20829
金钱
24401
鲜花
0
在线时间
1150 小时
最后登录
2018-12-19
发表于 2018-8-21 07:48:17 | 显示全部楼层
感谢楼主分享精彩电影!
回复 支持 反对

使用道具 举报

VIP贵宾

高清币
3520
金钱
5767
鲜花
0
在线时间
343 小时
最后登录
2018-12-19
发表于 2018-8-21 07:53:47 | 显示全部楼层
感谢楼主分享精彩电影
回复 支持 反对

使用道具 举报

永恒神话

高清币
7779
金钱
11509
鲜花
0
在线时间
637 小时
最后登录
2018-12-19
发表于 2018-8-21 08:00:49 | 显示全部楼层
感谢楼主分享精彩电影!
回复 支持 反对

使用道具 举报

影坛巨星

高清币
120
金钱
8959
鲜花
0
在线时间
1810 小时
最后登录
2018-12-19
发表于 2018-8-21 08:02:43 | 显示全部楼层
感谢楼主分享精彩电影!
回复 支持 反对

使用道具 举报

懒得打字嘛,点击右侧快捷回复 【右侧内容,后台自定义】
您需要登录后才可以回帖 登录 | 立即注册

本版积分规则

QQ|手机版|小黑屋|中国高清论坛 ( 黔ICP备16007815号-1 )

GMT+8, 2018-12-19 15:55 , Processed in 0.122412 second(s), 31 queries .

Powered by Discuz! X3.4

© 2001-2017 Comsenz Inc.

快速回复 返回顶部 返回列表