请选择 进入手机版 | 继续访问电脑版

中国高清论坛

 找回密码
 立即注册
搜索
查看: 2683|回复: 480

[动作片] 侏罗纪世界2/侏罗纪世界:殒落国度(台)/侏罗纪世界:迷失国度(港)/侏罗纪世界2:失落王国/侏罗纪世界2:堕落王国 Jurassic.World.Fallen

  [复制链接]

超级版主

高清币
1057331
金钱
33040
鲜花
7
在线时间
4477 小时
最后登录
2019-2-16
发表于 2018-9-9 08:44:07 | 显示全部楼层 |阅读模式
本帖最后由 ccbby 于 2018-9-29 02:35 编辑




◎译  名 侏罗纪世界2/侏罗纪世界:殒落国度(台)/侏罗纪世界:迷失国度(港)/侏罗纪世界2:失落王国/侏罗纪世界2:堕落王国/侏罗纪公园5
◎片  名 Jurassic World: Fallen Kingdom
◎年  代 2018
◎产  地 美国/西班牙
◎类  别 动作/科幻/冒险
◎语  言 英语
◎上映日期 2018-06-15(中国大陆)/2018-06-22(美国)
◎IMDb评分  6.4/10 from 122,933 users
◎IMDb链接  http://www.imdb.com/title/tt4881806/
◎豆瓣评分 6.8/10 from 187,986 users
◎豆瓣链接 https://movie.douban.com/subject/26416062/
◎片  长 128分钟
◎导  演 胡安·安东尼奥·巴亚纳 Juan Antonio Bayona

◎主  演 克里斯·帕拉特 Chris Pratt
      布莱丝·达拉斯·霍华德 Bryce Dallas Howard
      贾斯蒂斯·史密斯 Justice Smith
      伊莎贝拉·瑟蒙 1394999
      拉菲·斯波 Rafe Spall
      托比·琼斯 Toby Jones
      泰德·拉文 Ted Levine
      詹姆斯·克伦威尔 James Cromwell
      黄荣亮 B.D. Wong
      丹妮艾拉·皮内达 Daniella Pineda
      杰拉丁·卓别林 Geraldine Chaplin
      杰夫·高布伦 Jeff Goldblum
      卡米尔·雷米泽斯基 Kamil Lemieszewski
      丹尼尔·斯蒂森 Daniel Stisen
      皮特·杰森 Peter Jason
      迈克尔·帕帕约翰 Michael Papajohn
      罗伯特·埃姆斯 Robert Emms
      罗南·萨莫尔斯 Ronan Summers
      麦克斯·贝克 Max Baker
      丹尼尔·厄根 Daniel Eghan
      戴维·奥拉瓦莱·阿印德 David Olawale Ayinde





◎简  介

  自侏罗纪世界的骚乱以来,种类繁多的恐龙在努布拉岛度过了三年无拘无束的时光。然而该岛火山活动频繁,随时有喷发的危险。致力于恐龙保护的克莱尔·戴宁(布莱丝·达拉斯·霍华德 Bryce Dallas Howard 饰)受到班杰明•洛克伍德的邀请。班杰明及其下属伊莱·米尔斯(拉菲·斯波 Rafe Spall 饰)希望她和相关技术人员前往努布拉岛拯救那里的恐龙,并将它们安置在新的栖息地。受到感染的克莱尔设法找来欧文(克里斯·帕拉特 Chris Pratt 饰)一同前往,欧文则希望救出他亲手驯养的迅猛龙小蓝。当他们踏足这座隔绝之岛时,却发现事情没那么简单。
  火山蠢蠢欲动,随时爆发,而混乱之中丑恶的阴谋悄然酝酿……





  1. Video
  2. ID : 1
  3. Format : HEVC
  4. Format/Info : High Efficiency Video Coding
  5. Commercial name : HDR10
  6. Format profile : Main 10@L5.1@High
  7. Codec ID : V_MPEGH/ISO/HEVC
  8. Duration : 2 h 8 min
  9. Bit rate : 6 914 kb/s
  10. Width : 3 840 pixels
  11. Height : 1 608 pixels
  12. Display aspect ratio : 2.40:1
  13. Frame rate mode : Constant
  14. Frame rate : 23.976 (24000/1001) FPS
  15. Color space : YUV
  16. Chroma subsampling : 4:2:0 (Type 2)
  17. Bit depth : 10 bits
  18. Bits/(Pixel*Frame) : 0.047
  19. Stream size : 6.20 GiB (62%)
  20. Writing library : x265 2.8+66-88ee12651e30:[Windows][GCC 6.3.0][64 bit] 10bit
  21. Encoding settings : cpuid=1111039 / frame-threads=4 / numa-pools=20 / wpp / no-pmode / no-pme / no-psnr / no-ssim / log-level=2 / input-csp=1 / input-res=3840x1608 / interlace=0 / total-frames=184560 / level-idc=51 / high-tier=1 / uhd-bd=0 / ref=4 / no-allow-non-conformance / repeat-headers / annexb / aud / hrd / info / hash=0 / no-temporal-layers / no-open-gop / min-keyint=1 / keyint=24 / gop-lookahead=0 / bframes=4 / b-adapt=2 / b-pyramid / bframe-bias=0 / rc-lookahead=25 / lookahead-slices=4 / scenecut=40 / radl=0 / no-intra-refresh / ctu=64 / min-cu-size=8 / rect / no-amp / max-tu-size=32 / tu-inter-depth=1 / tu-intra-depth=1 / limit-tu=0 / rdoq-level=2 / dynamic-rd=0.00 / no-ssim-rd / signhide / no-tskip / nr-intra=0 / nr-inter=0 / no-constrained-intra / no-strong-intra-smoothing / max-merge=3 / limit-refs=3 / limit-modes / me=3 / subme=3 / merange=57 / temporal-mvp / weightp / no-weightb / no-analyze-src-pics / deblock=-3:-3 / no-sao / no-sao-non-deblock / rd=4 / no-early-skip / rskip / no-fast-intra / no-tskip-fast / no-cu-lossless / no-b-intra / no-splitrd-skip / rdpenalty=0 / psy-rd=2.00 / psy-rdoq=1.00 / no-rd-refine / no-lossless / cbqpoffs=0 / crqpoffs=0 / rc=crf / crf=17.0 / qcomp=0.60 / qpstep=4 / stats-write=0 / stats-read=0 / vbv-maxrate=160000 / vbv-bufsize=160000 / vbv-init=0.9 / crf-max=0.0 / crf-min=0.0 / ipratio=1.40 / pbratio=1.30 / aq-mode=1 / aq-strength=1.00 / cutree / zone-count=0 / no-strict-cbr / qg-size=32 / no-rc-grain / qpmax=69 / qpmin=0 / no-const-vbv / sar=1 / overscan=0 / videoformat=5 / range=0 / colorprim=9 / transfer=16 / colormatrix=9 / chromaloc=1 / chromaloc-top=2 / chromaloc-bottom=2 / display-window=0 / master-display=G(13250,34500)B(7500,3000)R(34000,16000)WP(15635,16450)L(10000000,1) / max-cll=1000,153 / min-luma=0 / max-luma=1023 / log2-max-poc-lsb=8 / vui-timing-info / vui-hrd-info / slices=1 / no-opt-qp-pps / no-opt-ref-list-length-pps / no-multi-pass-opt-rps / scenecut-bias=0.05 / no-opt-cu-delta-qp / no-aq-motion / hdr / hdr-opt / no-dhdr10-opt / no-idr-recovery-sei / analysis-reuse-level=5 / scale-factor=0 / refine-intra=0 / refine-inter=0 / refine-mv=0 / no-limit-sao / ctu-info=0 / no-lowpass-dct / refine-mv-type=0 / copy-pic=1 / max-ausize-factor=1.0 / no-dynamic-refine / no-single-sei
  22. Default : Yes
  23. Forced : No
  24. Color range : Limited
  25. Color primaries : BT.2020
  26. Transfer characteristics : PQ
  27. Matrix coefficients : BT.2020 non-constant
  28. Mastering display color primaries : Display P3
  29. Mastering display luminance : min: 0.0001 cd/m2, max: 1000 cd/m2
  30. Maximum Content Light Level : 1000 cd/m2
  31. Maximum Frame-Average Light Level : 153 cd/m2

  32. Audio
  33. ID : 2
  34. Format : DTS
  35. Format/Info : Digital Theater Systems
  36. Format profile : X / MA / Core
  37. Codec ID : A_DTS
  38. Duration : 2 h 8 min
  39. Bit rate mode : Variable / Variable / Constant
  40. Bit rate : 4 231 kb/s / 4 231 kb/s / 1 509 kb/s
  41. Channel(s) : Object Based / 8 channels / 6 channels
  42. Channel positions : Object Based / Front: L C R, Side: L R, Back: L R, LFE / Front: L C R, Side: L R, LFE
  43. Sampling rate : / 48.0 kHz / 48.0 kHz
  44. Frame rate : 93.750 FPS (512 SPF)
  45. Bit depth : / 24 bits / 24 bits
  46. Compression mode : / Lossless / Lossy
  47. Stream size : 3.79 GiB (38%)
  48. Language : English
  49. Default : Yes
  50. Forced : No

  51. Text #1
  52. ID : 3
  53. Format : PGS
  54. Muxing mode : zlib
  55. Codec ID : S_HDMV/PGS
  56. Codec ID/Info : Picture based subtitle format used on BDs/HD-DVDs
  57. Duration : 2 h 7 min
  58. Bit rate : 34.7 kb/s
  59. Count of elements : 3540
  60. Stream size : 31.5 MiB (0%)
  61. Language : English
  62. Default : No
  63. Forced : No

  64. Text #2
  65. ID : 4
  66. Format : PGS
  67. Muxing mode : zlib
  68. Codec ID : S_HDMV/PGS
  69. Codec ID/Info : Picture based subtitle format used on BDs/HD-DVDs
  70. Duration : 2 h 6 min
  71. Bit rate : 25.1 kb/s
  72. Count of elements : 2590
  73. Stream size : 22.7 MiB (0%)
  74. Language : Spanish
  75. Default : No
  76. Forced : No

  77. Text #3
  78. ID : 5
  79. Format : PGS
  80. Muxing mode : zlib
  81. Codec ID : S_HDMV/PGS
  82. Codec ID/Info : Picture based subtitle format used on BDs/HD-DVDs
  83. Duration : 2 h 6 min
  84. Bit rate : 23.6 kb/s
  85. Count of elements : 2592
  86. Stream size : 21.4 MiB (0%)
  87. Language : French
  88. Default : No
  89. Forced : No

  90. Menu
  91. 00:00:00.000 : :00:00:00.000
  92. 00:07:13.224 : :00:07:13.224
  93. 00:12:01.554 : :00:12:01.554
  94. 00:17:17.745 : :00:17:17.745
  95. 00:21:17.193 : :00:21:17.193
  96. 00:28:49.811 : :00:28:49.811
  97. 00:35:04.686 : :00:35:04.686
  98. 00:40:51.574 : :00:40:51.574
  99. 00:46:32.498 : :00:46:32.498
  100. 00:52:04.997 : :00:52:04.997
  101. 01:00:59.197 : :01:00:59.197
  102. 01:06:50.256 : :01:06:50.256
  103. 01:11:07.638 : :01:11:07.638
  104. 01:17:21.095 : :01:17:21.095
  105. 01:26:55.210 : :01:26:55.210
  106. 01:33:01.493 : :01:33:01.493
  107. 01:42:55.878 : :01:42:55.878
  108. 01:50:01.553 : :01:50:01.553
  109. 01:54:56.223 : :01:54:56.223
  110. 01:58:37.986 : :01:58:37.986
复制代码
游客,如果您要查看本帖隐藏内容请回复

回复

使用道具 举报

好莱坞明星

高清币
2145
金钱
3755
鲜花
0
在线时间
517 小时
最后登录
2019-2-13
发表于 2018-9-9 08:51:10 | 显示全部楼层
中国高清论坛很棒!
回复 支持 反对

使用道具 举报

永恒神话

高清币
6475
金钱
17269
鲜花
0
在线时间
3735 小时
最后登录
2019-2-17
发表于 2018-9-9 09:16:30 | 显示全部楼层
每天都来中国高清论坛看看有什么电影!
回复 支持 反对

使用道具 举报

永恒神话

高清币
17035
金钱
21497
鲜花
0
在线时间
1192 小时
最后登录
2019-1-29
发表于 2018-9-9 09:17:11 | 显示全部楼层
每天都来中国高清论坛看看有什么电影!
回复 支持 反对

使用道具 举报

金鸡奖主角

高清币
48
金钱
4393
鲜花
0
在线时间
6029 小时
最后登录
2019-2-17
发表于 2018-9-9 09:43:14 | 显示全部楼层
楼主分享的高清电影太好了!
回复 支持 反对

使用道具 举报

金鸡奖主角

高清币
48
金钱
4393
鲜花
0
在线时间
6029 小时
最后登录
2019-2-17
发表于 2018-9-9 09:43:32 | 显示全部楼层
每天都来中国高清论坛看看有什么电影!
回复 支持 反对

使用道具 举报

金鸡奖主角

高清币
48
金钱
4393
鲜花
0
在线时间
6029 小时
最后登录
2019-2-17
发表于 2018-9-9 09:44:05 | 显示全部楼层
中国高清论坛很棒!
回复 支持 反对

使用道具 举报

金鸡奖主角

高清币
48
金钱
4393
鲜花
0
在线时间
6029 小时
最后登录
2019-2-17
发表于 2018-9-9 09:44:28 | 显示全部楼层
中国高清论坛很棒!
回复 支持 反对

使用道具 举报

永恒神话

高清币
8439
金钱
10454
鲜花
0
在线时间
524 小时
最后登录
2019-2-17
发表于 2018-9-9 09:46:55 | 显示全部楼层
感谢楼主分享精彩电影!
回复 支持 反对

使用道具 举报

知名艺人

高清币
9
金钱
586
鲜花
0
在线时间
131 小时
最后登录
2019-2-17
发表于 2018-9-9 09:47:26 | 显示全部楼层
中国高清论坛很棒!
回复 支持 反对

使用道具 举报

懒得打字嘛,点击右侧快捷回复 【右侧内容,后台自定义】
您需要登录后才可以回帖 登录 | 立即注册

本版积分规则

QQ|手机版|小黑屋|中国高清论坛 ( 黔ICP备16007815号-1 )

GMT+8, 2019-2-17 21:57 , Processed in 0.116217 second(s), 30 queries .

Powered by Discuz! X3.4

© 2001-2017 Comsenz Inc.

快速回复 返回顶部 返回列表