请选择 进入手机版 | 继续访问电脑版

中国高清论坛

 找回密码
 立即注册
111
搜索
查看: 4890|回复: 917

[动作片] 碟中谍6:全面瓦解/碟中谍6/不可能的任务:全面瓦解(台)/职业特工队:叛逆之谜(港)/ Mission.Impossible.Fallout.2018.108

  [复制链接]

超级版主

高清币
895421
金钱
29006
鲜花
2
在线时间
3854 小时
最后登录
2018-11-20
发表于 2018-9-13 14:46:37 | 显示全部楼层 |阅读模式
本帖最后由 ccbby 于 2018-9-13 15:18 编辑




◎片  名 碟中谍6:全面瓦解/碟中谍6/不可能的任务:全面瓦解(台)/职业特工队:叛逆之谜(港)/
◎年  代 2018
◎产  地 美国
◎类  别 动作/惊悚/冒险
◎语  言 英语
◎片  长 147分钟
◎上映日期 2018-08(中国大陆)/2018-07-27(美国)
◎IMDb评分  8.7/10 from 12973 users
◎IMDb链接  http://www.imdb.com/title/tt4912910
◎豆瓣链接  https://movie.douban.com/subject/26336252/
◎导  演  克里斯托弗·麦奎里
◎主  演 汤姆·克鲁斯 Tom Cruise
      亨利·卡维尔 Henry Cavill
      文·瑞姆斯 Ving Rhames
      西蒙·佩吉 Simon Pegg
      丽贝卡·弗格森 Rebecca Ferguson
      西恩·哈里斯 Sean Harris
      安吉拉·贝塞特 Angela Bassett
      凡妮莎·柯比 Vanessa Kirby
      米歇尔·莫纳汉 Michelle Monaghan
      韦斯·本特利 Wes Bentley
      费雷德里克·施密特 Frederick Schmidt
      亚历克·鲍德温 Alec Baldwin
      梁杨 Yang Liang
      克里斯托弗·琼勒 Kristoffer Joner
      沃尔夫·布利策 Wolf Blitzer
      拉斐尔·琼勒 Raphael Joner
      安德鲁·卡扎纳夫·平 Andrew Cazanave Pin
      克里斯多夫·德·舒瓦西 Christophe de Choisy
      拉裴尔·德普雷 Raphael Desprez
      让·巴普蒂斯特·菲永 Jean Baptiste Fillon
      马克斯·盖勒 Max Geller
      奥利维尔·体班德 Olivier Huband
      亚历山大·普尔 Alexandre Poole
      阿利克斯·贝纳泽什 Alix Bénézech
      乔伊·安沙 Joey Ansah
      维利贝·托皮奇 Velibor Topic
      格雷厄姆·福克斯 Grahame Fox
      卡斯珀·菲利普森 Caspar Phillipson
      菲恩·乔利 Ffion Jolly
      鲁斯·贝恩 Russ Bain
      奈杰尔·艾伦 Nigel Allen

◎简  介

  有时好意会造成恶果,人反而被自己所造成的结果所困扰。伊桑·亨特(汤姆·克鲁斯)和他的IMF团队(亚历克·鲍德温、西蒙·佩吉、文·瑞姆斯)将在最新的电影《碟中谍6:全面瓦解》中再度回归,他们会与观众们熟悉的盟友(丽贝卡·弗格森、米歇尔·莫娜汉)一起与时间赛跑,应对一次任务中出现的意外。亨利·卡维尔、安吉拉·贝塞特和凡妮莎·柯比也将加入本片的演员阵容,电影制片人克里斯托夫·迈考利将会再度担任导演。



  1. Video
  2. ID : 1
  3. Format : AVC
  4. Format/Info : Advanced Video Codec
  5. Format profile : High@L4.1
  6. Format settings : CABAC / 4 Ref Frames
  7. Format settings, CABAC : Yes
  8. Format settings, ReFrames : 4 frames
  9. Codec ID : avc1
  10. Codec ID/Info : Advanced Video Coding
  11. Duration : 2 h 27 min
  12. Bit rate : 6 500 kb/s
  13. Width : 1 920 pixels
  14. Height : 800 pixels
  15. Display aspect ratio : 2.40:1
  16. Frame rate mode : Constant
  17. Frame rate : 29.970 (30000/1001) FPS
  18. Color space : YUV
  19. Chroma subsampling : 4:2:0
  20. Bit depth : 8 bits
  21. Scan type : Progressive
  22. Bits/(Pixel*Frame) : 0.141
  23. Stream size : 6.63 GiB (96%)
  24. Title : Mission.Impossible.Fallout.2018.1080p.KORSUB.HDRip.x264.AAC2.0-STUTTERSHIT
  25. Writing library : x264 core 148 r2795M aaa9aa8
  26. Encoding settings : cabac=1 / ref=4 / deblock=1:0:0 / analyse=0x3:0x113 / me=umh / subme=9 / psy=1 / psy_rd=1.00:0.00 / mixed_ref=1 / me_range=16 / chroma_me=1 / trellis=2 / 8x8dct=1 / cqm=0 / deadzone=21,11 / fast_pskip=1 / chroma_qp_offset=-2 / threads=40 / lookahead_threads=3 / sliced_threads=0 / nr=0 / decimate=1 / interlaced=0 / bluray_compat=0 / constrained_intra=0 / bframes=3 / b_pyramid=2 / b_adapt=2 / b_bias=0 / direct=3 / weightb=1 / open_gop=0 / weightp=2 / keyint=250 / keyint_min=25 / scenecut=40 / intra_refresh=0 / rc_lookahead=50 / rc=abr / mbtree=1 / bitrate=6500 / ratetol=1.0 / qcomp=0.60 / qpmin=0 / qpmax=69 / qpstep=4 / ip_ratio=1.40 / aq=1:1.00

  27. Audio
  28. ID : 2
  29. Format : AAC
  30. Format/Info : Advanced Audio Codec
  31. Format profile : LC
  32. Codec ID : mp4a-40-2
  33. Duration : 2 h 27 min
  34. Bit rate mode : Constant
  35. Bit rate : 256 kb/s
  36. Channel(s) : 2 channels
  37. Channel positions : Front: L R
  38. Sampling rate : 48.0 kHz
  39. Frame rate : 46.875 FPS (1024 SPF)
  40. Compression mode : Lossy
  41. Stream size : 270 MiB (4%)
  42. Title : Mission.Impossible.Fallout.2018.1080p.KORSUB.HDRip.x264.AAC2.0-STUTTERSHIT
  43. Language : English
  44. Default : Yes
  45. Alternate group : 1
复制代码
游客,如果您要查看本帖隐藏内容请回复
回复

使用道具 举报

金鸡奖主角

高清币
2546
金钱
1790
鲜花
0
在线时间
668 小时
最后登录
2018-11-16
发表于 2018-9-13 14:49:13 | 显示全部楼层
感谢楼主分享精彩电影!
回复 支持 反对

使用道具 举报

永恒神话

高清币
5628
金钱
12756
鲜花
0
在线时间
699 小时
最后登录
2018-11-19
发表于 2018-9-13 14:49:22 | 显示全部楼层
每天都来中国高清论坛看看有什么电影!
回复 支持 反对

使用道具 举报

知名艺人

高清币
14
金钱
210
鲜花
0
在线时间
25 小时
最后登录
2018-10-8
发表于 2018-9-13 14:49:35 | 显示全部楼层
楼主分享的高清电影太好了!
回复 支持 反对

使用道具 举报

天王巨星

高清币
497
金钱
3474
鲜花
0
在线时间
1186 小时
最后登录
2018-11-19
发表于 2018-9-13 14:50:10 | 显示全部楼层
谢谢楼主的分享
回复 支持 反对

使用道具 举报

天王巨星

高清币
7
金钱
2684
鲜花
0
在线时间
307 小时
最后登录
2018-11-19
发表于 2018-9-13 14:50:11 | 显示全部楼层
thank you very much
回复 支持 反对

使用道具 举报

人气偶像

高清币
4
金钱
1522
鲜花
0
在线时间
203 小时
最后登录
2018-11-19
发表于 2018-9-13 14:50:33 | 显示全部楼层
感谢楼主分享精彩电影!
回复 支持 反对

使用道具 举报

好莱坞明星

高清币
561
金钱
6603
鲜花
0
在线时间
680 小时
最后登录
2018-11-19
发表于 2018-9-13 14:51:15 | 显示全部楼层
中国高清论坛很棒!
回复 支持 反对

使用道具 举报

superstar

高清币
5484
金钱
7153
鲜花
0
在线时间
1072 小时
最后登录
2018-11-20
发表于 2018-9-13 14:51:59 | 显示全部楼层
中国高清论坛很棒!
回复 支持 反对

使用道具 举报

永恒神话

高清币
20856
金钱
29306
鲜花
0
在线时间
1187 小时
最后登录
2018-11-19
发表于 2018-9-13 14:52:16 | 显示全部楼层
感谢楼主分享精彩电影!
回复 支持 反对

使用道具 举报

懒得打字嘛,点击右侧快捷回复 【右侧内容,后台自定义】
您需要登录后才可以回帖 登录 | 立即注册

本版积分规则

QQ|手机版|小黑屋|中国高清论坛 ( 黔ICP备16007815号-1 )

GMT+8, 2018-11-20 08:18 , Processed in 0.104966 second(s), 30 queries .

Powered by Discuz! X3.4

© 2001-2017 Comsenz Inc.

快速回复 返回顶部 返回列表