请选择 进入手机版 | 继续访问电脑版

中国高清论坛

 找回密码
 立即注册
搜索
查看: 784|回复: 110

[动作片] 中南海保镖.1994.1080p.WEBRip.DD2.0.x264-SbR

  [复制链接]

退役管理

高清币
2343
金钱
4714
鲜花
0
在线时间
2688 小时
最后登录
2018-10-30
发表于 2018-9-16 17:41:22 | 显示全部楼层 |阅读模式
◎片  名 中南海保镖
◎年  代 1994
◎产  地 香港
◎类  别 动作
◎语  言 粤语
◎上映日期 1994-07-28
◎片  长 89分钟
◎导  演 元奎 Corey Yuen
◎主  演 李连杰 Jet Li
      钟丽缇 Christy Chung
      郑则仕 Kent Cheng
      邹兆龙 Collin Chou
      梁荣忠 Wing-Chung Leung
      黄锦江 Kam-Kong Wong
      元奎 Corey Yuen
      伍卫国 Lawrence
      朱威廉
      迈克尔·米勒

◎简  介

  香港地区一起杀人案的唯一目击证人Michelle(钟丽缇 饰)正被杀手追杀,因为其未婚夫是与大陆高层关系密切的富商,身手不凡的中国特警许正阳(李连杰 饰)便被中央委派去香港保护Michelle。
  两人初接触时互看两生厌,但慢慢都发现了对方的优点并产生了感情,然而因为身 份和工作性质,许正阳尽量将感情压抑,却免不了在刻意回避时患得患失,就在两人感觉无从择决时,一个异常危险的杀手悄悄靠近了他们。

◎获奖情况

  第14届香港电影金像奖  (1995)
  最佳动作设计(提名) 元德 / 元奎


Video
ID : 1
Format : AVC
Format/Info : Advanced Video Codec
Format profile : High@L4
Format settings : CABAC / 4 Ref Frames
Format settings, CABAC : Yes
Format settings, ReFrames : 4 frames
Codec ID : V_MPEG4/ISO/AVC
Duration : 1 h 32 min
Bit rate mode : Variable
Bit rate : 14.0 Mb/s
Maximum bit rate : 15.0 Mb/s
Width : 1 920 pixels
Height : 1 080 pixels
Display aspect ratio : 16:9
Frame rate mode : Constant
Frame rate : 23.976 (24000/1001) FPS
Color space : YUV
Chroma subsampling : 4:2:0
Bit depth : 8 bits
Scan type : Progressive
Bits/(Pixel*Frame) : 0.281
Stream size : 9.00 GiB (98%)
Writing library : x264 core 148 r2623 d5b2374
Encoding settings : cabac=1 / ref=4 / deblock=1:-1:-1 / analyse=0x3:0x133 / me=umh / subme=9 / psy=1 / psy_rd=1.00:0.15 / mixed_ref=1 / me_range=24 / chroma_me=1 / trellis=2 / 8x8dct=1 / cqm=0 / deadzone=21,11 / fast_pskip=1 / chroma_qp_offset=-3 / threads=34 / lookahead_threads=5 / sliced_threads=0 / nr=150 / decimate=1 / interlaced=0 / bluray_compat=0 / constrained_intra=0 / bframes=8 / b_pyramid=2 / b_adapt=2 / b_bias=0 / direct=3 / weightb=1 / open_gop=0 / weightp=2 / keyint=120 / keyint_min=61 / scenecut=0 / intra_refresh=0 / rc_lookahead=120 / rc=crf / mbtree=1 / crf=18.0 / qcomp=0.60 / qpmin=0 / qpmax=69 / qpstep=4 / vbv_maxrate=15000 / vbv_bufsize=31250 / crf_max=0.0 / nal_hrd=vbr / filler=0 / ip_ratio=1.40 / aq=3:1.00
Default : Yes
Forced : No
Color range : Limited
Color primaries : BT.709
Transfer characteristics : BT.709
Matrix coefficients : BT.709

Audio
ID : 2
Format : E-AC-3
Format/Info : Enhanced Audio Coding 3
Codec ID : A_EAC3
Duration : 1 h 32 min
Bit rate mode : Constant
Bit rate : 224 kb/s
Channel(s) : 2 channels
Channel positions : Front: L R
Sampling rate : 48.0 kHz
Frame rate : 187.500 FPS (256 SPF)
Compression mode : Lossy
Stream size : 148 MiB (2%)
Language : English
Service kind : Complete Main
Default : Yes
Forced : No

Text
ID : 3
Format : UTF-8
Codec ID : S_TEXT/UTF8
Codec ID/Info : UTF-8 Plain Text
Duration : 1 h 27 min
Bit rate : 50 b/s
Count of elements : 1192
Stream size : 32.4 KiB (0%)
Title : SDH
Language : English
Default : No
Forced : No




回复下载:





游客,如果您要查看本帖隐藏内容请回复


回复

使用道具 举报

金鸡奖主角

高清币
101
金钱
5823
鲜花
0
在线时间
685 小时
最后登录
2019-2-20
发表于 2018-9-16 17:42:18 | 显示全部楼层
每天都来中国高清论坛看看有什么电影!
回复 支持 反对

使用道具 举报

超级明星

高清币
449
金钱
10294
鲜花
0
在线时间
4016 小时
最后登录
2019-2-22
发表于 2018-9-16 17:43:20 | 显示全部楼层
中国高清论坛很棒!
回复 支持 反对

使用道具 举报

永恒神话

高清币
7682
金钱
12127
鲜花
0
在线时间
405 小时
最后登录
2019-2-21
发表于 2018-9-16 17:50:38 | 显示全部楼层
每天都来中国高清论坛看看有什么电影!
回复 支持 反对

使用道具 举报

人气偶像

高清币
29
金钱
1604
鲜花
0
在线时间
253 小时
最后登录
2019-2-20
发表于 2018-9-16 17:51:42 | 显示全部楼层
感谢楼主分享精彩电影!
回复 支持 反对

使用道具 举报

永恒神话

高清币
9517
金钱
14725
鲜花
0
在线时间
1485 小时
最后登录
2019-2-21
发表于 2018-9-16 17:52:20 | 显示全部楼层
每天都来中国高清论坛看看有什么电影!
回复 支持 反对

使用道具 举报

永恒神话

高清币
9517
金钱
14725
鲜花
0
在线时间
1485 小时
最后登录
2019-2-21
发表于 2018-9-16 17:52:39 | 显示全部楼层
感谢楼主分享精彩电影!
回复 支持 反对

使用道具 举报

永恒神话

高清币
9517
金钱
14725
鲜花
0
在线时间
1485 小时
最后登录
2019-2-21
发表于 2018-9-16 17:52:58 | 显示全部楼层
楼主分享的高清电影太好了!
回复 支持 反对

使用道具 举报

永恒神话

高清币
9517
金钱
14725
鲜花
0
在线时间
1485 小时
最后登录
2019-2-21
发表于 2018-9-16 17:53:18 | 显示全部楼层
中国高清论坛很棒!
回复 支持 反对

使用道具 举报

永恒神话

高清币
9517
金钱
14725
鲜花
0
在线时间
1485 小时
最后登录
2019-2-21
发表于 2018-9-16 17:53:34 | 显示全部楼层
我看不错噢 谢谢楼主!
回复 支持 反对

使用道具 举报

懒得打字嘛,点击右侧快捷回复 【右侧内容,后台自定义】
您需要登录后才可以回帖 登录 | 立即注册

本版积分规则

QQ|手机版|小黑屋|中国高清论坛 ( 黔ICP备16007815号-1 )

GMT+8, 2019-2-22 10:19 , Processed in 0.112360 second(s), 32 queries .

Powered by Discuz! X3.4

© 2001-2017 Comsenz Inc.

快速回复 返回顶部 返回列表