请选择 进入手机版 | 继续访问电脑版

中国高清论坛

 找回密码
 立即注册
111
搜索
查看: 22834|回复: 5117

[动作片] 摩天营救 Skyscraper.2018.1080p.BluRay.x264.DTS-HD.MA.7.1-FGT 9.7GB

  [复制链接]

超级版主

高清币
959500
金钱
30530
鲜花
2
在线时间
4086 小时
最后登录
2018-12-10
发表于 2018-9-28 17:03:14 | 显示全部楼层 |阅读模式
985f50ccb13c5b423c81fad05a7be9ec.jpg


◎译  名 摩天营救/摩天大楼(台)/高凶浩劫(港)/高耸入云
◎片  名 Skyscraper
◎年  代 2018
◎产  地 美国
◎类  别 动作/惊悚/冒险
◎语  言 英语/粤语/汉语普通话
◎上映日期 2018-07-13(美国)/2018-07-20(中国大陆)
◎IMDb评分  6.1/10 from 18,714 users
◎IMDb链接  https://www.imdb.com/title/tt5758778/
◎豆瓣评分 6.5/10 from 46,187 users
◎豆瓣链接 https://movie.douban.com/subject/26804147/
◎片  长 102分钟
◎导  演 罗森·马歇尔·瑟伯 Rawson Marshall Thurber
◎主  演 道恩·强森 Dwayne Johnson
      内芙·坎贝尔 Neve Campbell
      黄经汉 Chin Han
      罗兰·默勒 Roland M?ller
      麦肯纳·罗伯茨 McKenna Roberts
      诺亚·科特雷尔 Noah Cottrell
      诺亚·泰勒 Noah Taylor
      巴勃罗·施瑞博尔 Pablo Schreiber
      凯文·兰金 Kevin Rankin
      昆凌 Hannah Quinlivan
      文峰 Byron Mann
      马特·欧莱瑞 Matt O'Leary
      比特里斯·金 Beatrice King
      马志 Tzi Ma
      保罗·麦克吉莱恩 Paul McGillion
      吴嘉星 Kathy Wu
      艾德里安·霍姆斯 Adrian Holmes
      维努斯·特雷佐 Venus Terzo
      杰特·克莱恩 Jett Klyne
      拜伦·劳森 Byron Lawson
      关永扬 Darryl Quon
      法比欧·塔索恩 Fabio Tassone
      卡洛·余 Carlo Yu




◎简  介

  在香港市中心,世界上最高、结构最复杂的摩天大楼遭到破坏,危机一触即发。威尔·索耶(道恩·强森 饰)的妻子萨拉(内芙·坎贝尔 饰)和孩子们在98层被劫为人质,直接暴露在火线上。威尔,这位战争英雄、前联邦调查局救援队员,作为大楼的安保顾问,却被诬陷纵火和谋杀。他必须奋力营救家人,为自己洗脱罪名,关乎生死存亡的高空任务就此展开。



  1. Video
  2. ID : 1
  3. Format : AVC
  4. Format/Info : Advanced Video Codec
  5. Format profile : High@L4.1
  6. Format settings : CABAC / 5 Ref Frames
  7. Format settings, CABAC : Yes
  8. Format settings, ReFrames : 5 frames
  9. Codec ID : V_MPEG4/ISO/AVC
  10. Duration : 1 h 42 min
  11. Bit rate : 10.1 Mb/s
  12. Width : 1 920 pixels
  13. Height : 800 pixels
  14. Display aspect ratio : 2.40:1
  15. Frame rate mode : Constant
  16. Frame rate : 23.976 (24000/1001) FPS
  17. Color space : YUV
  18. Chroma subsampling : 4:2:0
  19. Bit depth : 8 bits
  20. Scan type : Progressive
  21. Bits/(Pixel*Frame) : 0.273
  22. Stream size : 7.19 GiB (74%)
  23. Title : Skyscraper.2018.1080p.BluRay.x264.DTS-HD.MA.7.1-FGT
  24. Writing library : x264 core 157 r2932 303c484
  25. Encoding settings : cabac=1 / ref=5 / deblock=1:-3:-3 / analyse=0x3:0x113 / me=umh / subme=8 / psy=1 / psy_rd=1.00:0.00 / mixed_ref=1 / me_range=16 / chroma_me=1 / trellis=1 / 8x8dct=1 / cqm=0 / deadzone=21,11 / fast_pskip=1 / chroma_qp_offset=-2 / threads=24 / lookahead_threads=4 / sliced_threads=0 / nr=0 / decimate=1 / interlaced=0 / bluray_compat=0 / constrained_intra=0 / bframes=3 / b_pyramid=2 / b_adapt=1 / b_bias=0 / direct=3 / weightb=1 / open_gop=0 / weightp=2 / keyint=250 / keyint_min=23 / scenecut=40 / intra_refresh=0 / rc_lookahead=50 / rc=2pass / mbtree=1 / bitrate=10057 / ratetol=1.0 / qcomp=0.60 / qpmin=0 / qpmax=69 / qpstep=4 / cplxblur=20.0 / qblur=0.5 / ip_ratio=1.40 / aq=1:1.00
  26. Language : English
  27. Default : Yes
  28. Forced : No

  29. Audio
  30. ID : 2
  31. Format : DTS
  32. Format/Info : Digital Theater Systems
  33. Format profile : MA / Core
  34. Codec ID : A_DTS
  35. Duration : 1 h 42 min
  36. Bit rate mode : Variable / Constant
  37. Bit rate : 3 510 kb/s / 1 509 kb/s
  38. Channel(s) : 8 channels / 6 channels
  39. Channel positions : Front: L C R, Side: L R, Back: L R, LFE / Front: L C R, Side: L R, LFE
  40. Sampling rate : 48.0 kHz
  41. Frame rate : 93.750 FPS (512 SPF)
  42. Bit depth : 24 bits
  43. Compression mode : Lossless / Lossy
  44. Stream size : 2.51 GiB (26%)
  45. Title : Skyscraper.2018.1080p.BluRay.x264.DTS-HD.MA.7.1-FGT
  46. Language : English
  47. Default : Yes
  48. Forced : No

  49. Text
  50. ID : 3
  51. Format : UTF-8
  52. Codec ID : S_TEXT/UTF8
  53. Codec ID/Info : UTF-8 Plain Text
  54. Duration : 1 h 31 min
  55. Bit rate : 43 b/s
  56. Count of elements : 988
  57. Stream size : 29.2 KiB (0%)
  58. Title : English-SRT
  59. Language : English
  60. Default : Yes
  61. Forced : No

  62. Menu
  63. 00:00:00.000 : :00:00:00.000
  64. 00:04:24.764 : :00:04:24.764
  65. 00:10:07.357 : :00:10:07.357
  66. 00:16:09.927 : :00:16:09.927
  67. 00:21:12.605 : :00:21:12.605
  68. 00:25:34.992 : :00:25:34.992
  69. 00:30:11.727 : :00:30:11.727
  70. 00:35:23.913 : :00:35:23.913
  71. 00:40:07.113 : :00:40:07.113
  72. 00:47:18.961 : :00:47:18.961
  73. 00:52:10.252 : :00:52:10.252
  74. 00:58:16.785 : :00:58:16.785
  75. 01:02:02.969 : :01:02:02.969
  76. 01:05:29.634 : :01:05:29.634
  77. 01:09:59.404 : :01:09:59.404
  78. 01:14:31.425 : :01:14:31.425
  79. 01:17:18.259 : :01:17:18.259
  80. 01:23:33.342 : :01:23:33.342
  81. 01:27:46.219 : :01:27:46.219
  82. 01:32:54.569 : :01:32:54.569
复制代码
游客,如果您要查看本帖隐藏内容请回复
回复

使用道具 举报

永恒神话

高清币
34666
金钱
67261
鲜花
0
在线时间
5351 小时
最后登录
2018-12-10
发表于 2018-9-28 17:04:50 | 显示全部楼层
感谢楼主分享精彩电影!
回复 支持 反对

使用道具 举报

天王巨星

高清币
122
金钱
2962
鲜花
0
在线时间
790 小时
最后登录
2018-12-9
发表于 2018-9-28 17:05:56 | 显示全部楼层
既然你诚信诚意的推荐了,那我就勉为其难的看看吧!
回复 支持 反对

使用道具 举报

永恒神话

高清币
15748
金钱
25846
鲜花
0
在线时间
2512 小时
最后登录
2018-12-4
发表于 2018-9-28 17:07:06 | 显示全部楼层
既然你诚信诚意的推荐了,那我就勉为其难的看看吧!
回复 支持 反对

使用道具 举报

人气偶像

高清币
22
金钱
2274
鲜花
0
在线时间
594 小时
最后登录
2018-12-6
发表于 2018-9-28 17:07:39 | 显示全部楼层
中国高清论坛很棒!
回复 支持 反对

使用道具 举报

金鸡奖主角

高清币
17
金钱
5157
鲜花
0
在线时间
885 小时
最后登录
2018-12-9
发表于 2018-9-28 17:08:38 | 显示全部楼层
感谢楼主分享精彩电影!
回复 支持 反对

使用道具 举报

天王巨星

高清币
94
金钱
2189
鲜花
0
在线时间
306 小时
最后登录
2018-12-9
发表于 2018-9-28 17:10:22 | 显示全部楼层
感谢楼主分享精彩电影!
回复 支持 反对

使用道具 举报

天王巨星

高清币
94
金钱
2189
鲜花
0
在线时间
306 小时
最后登录
2018-12-9
发表于 2018-9-28 17:12:30 | 显示全部楼层
感谢楼主分享精彩电影!
回复 支持 反对

使用道具 举报

人气偶像

高清币
110
金钱
646
鲜花
0
在线时间
160 小时
最后登录
2018-12-7
发表于 2018-9-28 17:12:37 | 显示全部楼层
谢谢楼主分享精彩的电影~!
回复 支持 反对

使用道具 举报

人气偶像

高清币
229
金钱
1260
鲜花
0
在线时间
113 小时
最后登录
2018-12-7
发表于 2018-9-28 17:12:49 | 显示全部楼层
thx.............................
回复 支持 反对

使用道具 举报

懒得打字嘛,点击右侧快捷回复 【右侧内容,后台自定义】
您需要登录后才可以回帖 登录 | 立即注册

本版积分规则

QQ|手机版|小黑屋|中国高清论坛 ( 黔ICP备16007815号-1 )

GMT+8, 2018-12-10 09:52 , Processed in 0.130154 second(s), 31 queries .

Powered by Discuz! X3.4

© 2001-2017 Comsenz Inc.

快速回复 返回顶部 返回列表