请选择 进入手机版 | 继续访问电脑版

中国高清论坛

 找回密码
 立即注册
111
搜索
查看: 2505|回复: 747

[动作片] 蚁人2:黄蜂女现身/蚁侠2:黄蜂女现身(港)/蚁人2/蚁人与黄蜂女 Ant-Man.and.the.Wasp.2018.1080p.BluRay.x264.DT

  [复制链接]

超级版主

高清币
959573
金钱
30532
鲜花
2
在线时间
4086 小时
最后登录
2018-12-10
发表于 2018-10-6 05:09:09 | 显示全部楼层 |阅读模式




◎译  名 蚁人2:黄蜂女现身/蚁侠2:黄蜂女现身(港)/蚁人2/蚁人与黄蜂女
◎片  名 Ant-Man and the Wasp
◎年  代 2018
◎产  地 美国
◎类  别 动作/科幻/冒险
◎语  言 英语
◎上映日期 2018-07-06(美国)/2018-08-24(中国大陆)
◎IMDb评分  7.4/10 from 97,711 users
◎IMDb链接  http://www.imdb.com/title/tt5095030/
◎豆瓣评分 7.5/10 from 150,372 users
◎豆瓣链接 https://movie.douban.com/subject/26636712/
◎片  长 118分钟/119分钟(中国大陆)
◎导  演 佩顿·里德 Peyton Reed
◎主  演 保罗·路德 Paul Rudd
      伊万杰琳·莉莉 Evangeline Lilly
      迈克尔·佩纳 Michael Peña
      汉娜·乔恩-卡门 Hannah John-Kamen
      沃尔顿·戈金斯 Walton Goggins
      鲍比·坎纳瓦尔 Bobby Cannavale
      朱迪·格雷尔 Judy Greer
      T.I.
      大卫·达斯马齐连 David Dastmalchian
      艾比·莱德·弗特森 Abby Ryder Fortson
      兰道尔·朴 Randall Park
      米歇尔·菲佛 Michelle Pfeiffer
      劳伦斯·菲什伯恩 Laurence Fishburne
      迈克尔·道格拉斯 Michael Douglas
      戈兰·卡斯蒂克 Goran Kostic
      罗布·阿切尔 Rob Archer
      肖恩·克莱尔 Sean Kleier
      本·戴维斯 Ben Davis
      迈克尔·瑟沃瑞斯 Michael Cerveris
      达克斯·格里芬 Dax Griffin
      海莉·洛维特 Hayley Lovitt
      玛德琳·麦格劳 Madeleine McGraw
      蒂姆·海德克 Tim Heidecker
      布莱恩·赫斯基 Brian Huskey
      朱莉娅·维拉 Julia Vera
      布莱恩·卢戈 Bryan Lugo
      托里·沃格尔 Torrey Vogel
      汤姆·夏普林 Tom Scharpling
      斯坦·李 Stan Lee
      约瑟夫·阿梅 Joseph Amey
      安迪·阿尼斯 Andy Arness
      威廉·W·巴伯 William W. Barbour
      玛塞拉·布拉吉奥 Marcella Bragio
      塞尔吉奥·布里奥内斯 Sergio Briones
      乔·布卡罗三世 Joe Bucaro III
      蒂莫西·卡尔 Timothy Carr
      贾迈尔·钱伯斯 Jamel Chambers
      扎卡里·卡伯森 Zachary Culbertson
      雅各布·埃文斯 Jacob Evans
      米歇尔·方 Michelle Fang
      盖尔·甘布尔 Gail Gamble
      克里斯·加恩 Chris Gann
      约翰·盖蒂尔 John Gettier
      杰克·汉森 Jake Hanson
      卡茜·亨德利 Cassie Hendry

◎简  介

  来自漫威电影宇宙的新片《蚁人2:黄蜂女现身》重点展现了两位超级英雄令人惊叹的收缩能力。继《美国队长3》的故事线之后,斯科特·朗迎来了自己作为超级英雄和孩子父亲的双重身份。一方面,他在背负着蚁人职责的同时努力过好自己的生活;另一方面,二代黄蜂女霍普·凡·戴恩和汉克·皮姆博士又向他传达了一项紧迫的新任务。斯科特必须再次穿上战衣,与黄蜂女并肩作战,共同破解来自过去的谜题。

◎获奖情况

  第4届豆瓣电影年度榜单  (2017)
  最值得期待的外语电影(提名)




  1. Video
  2. ID : 1
  3. Format : AVC
  4. Format/Info : Advanced Video Codec
  5. Format profile : High@L4.1
  6. Format settings : CABAC / 5 Ref Frames
  7. Format settings, CABAC : Yes
  8. Format settings, ReFrames : 5 frames
  9. Codec ID : V_MPEG4/ISO/AVC
  10. Duration : 1 h 58 min
  11. Bit rate : 9 091 kb/s
  12. Width : 1 920 pixels
  13. Height : 808 pixels
  14. Display aspect ratio : 2.40:1
  15. Frame rate mode : Constant
  16. Frame rate : 23.976 FPS
  17. Color space : YUV
  18. Chroma subsampling : 4:2:0
  19. Bit depth : 8 bits
  20. Scan type : Progressive
  21. Bits/(Pixel*Frame) : 0.244
  22. Stream size : 7.50 GiB (65%)
  23. Title : Ant-Man.and.the.Wasp.2018.1080p.BluRay.x264.DTS-HD.MA.7.1-FGT
  24. Writing library : x264 core 157 r2932 303c484
  25. Encoding settings : cabac=1 / ref=5 / deblock=1:0:0 / analyse=0x3:0x133 / me=umh / subme=7 / psy=1 / psy_rd=1.00:0.00 / mixed_ref=1 / me_range=16 / chroma_me=1 / trellis=1 / 8x8dct=1 / cqm=0 / deadzone=21,11 / fast_pskip=0 / chroma_qp_offset=-2 / threads=25 / lookahead_threads=4 / sliced_threads=0 / nr=0 / decimate=1 / interlaced=0 / bluray_compat=0 / constrained_intra=0 / bframes=3 / b_pyramid=2 / b_adapt=1 / b_bias=0 / direct=1 / weightb=1 / open_gop=0 / weightp=2 / keyint=250 / keyint_min=23 / scenecut=40 / intra_refresh=0 / rc_lookahead=40 / rc=2pass / mbtree=1 / bitrate=9091 / ratetol=1.0 / qcomp=0.60 / qpmin=0 / qpmax=69 / qpstep=4 / cplxblur=20.0 / qblur=0.5 / ip_ratio=1.40 / aq=1:1.00
  26. Language : English
  27. Default : Yes
  28. Forced : No

  29. Audio
  30. ID : 2
  31. Format : DTS
  32. Format/Info : Digital Theater Systems
  33. Format profile : MA / Core
  34. Codec ID : A_DTS
  35. Duration : 1 h 58 min
  36. Bit rate mode : Variable / Constant
  37. Bit rate : 4 788 kb/s / 1 509 kb/s
  38. Channel(s) : 8 channels / 6 channels
  39. Channel positions : Front: L C R, Side: L R, Back: L R, LFE / Front: L C R, Side: L R, LFE
  40. Sampling rate : 48.0 kHz
  41. Frame rate : 93.750 FPS (512 SPF)
  42. Bit depth : 24 bits
  43. Compression mode : Lossless / Lossy
  44. Stream size : 3.95 GiB (34%)
  45. Title : Ant-Man.and.the.Wasp.2018.1080p.BluRay.x264.DTS-HD.MA.7.1-FGT
  46. Language : English
  47. Default : Yes
  48. Forced : No

  49. Text
  50. ID : 3
  51. Format : UTF-8
  52. Codec ID : S_TEXT/UTF8
  53. Codec ID/Info : UTF-8 Plain Text
  54. Duration : 1 h 50 min
  55. Bit rate : 65 b/s
  56. Count of elements : 1805
  57. Stream size : 53.0 KiB (0%)
  58. Title : English-SRT
  59. Language : English
  60. Default : Yes
  61. Forced : No

  62. Menu
  63. 00:00:00.000 : en:00:00:00.000
  64. 00:04:03.034 : en:00:04:03.034
  65. 00:10:16.407 : en:00:10:16.407
  66. 00:13:39.861 : en:00:13:39.861
  67. 00:21:25.451 : en:00:21:25.451
  68. 00:29:07.829 : en:00:29:07.829
  69. 00:36:09.084 : en:00:36:09.084
  70. 00:40:56.579 : en:00:40:56.579
  71. 00:50:17.431 : en:00:50:17.431
  72. 00:58:59.077 : en:00:58:59.077
  73. 01:04:56.434 : en:01:04:56.434
  74. 01:12:54.287 : en:01:12:54.287
  75. 01:18:32.124 : en:01:18:32.124
  76. 01:24:44.913 : en:01:24:44.913
  77. 01:29:47.340 : en:01:29:47.340
  78. 01:36:16.270 : en:01:36:16.270
  79. 01:43:35.334 : en:01:43:35.334
  80. 01:46:59.830 : en:01:46:59.830
复制代码
游客,如果您要查看本帖隐藏内容请回复


回复

使用道具 举报

人气偶像

高清币
498
金钱
1152
鲜花
0
在线时间
201 小时
最后登录
2018-12-10
发表于 2018-10-6 05:31:47 | 显示全部楼层
每天都来中国高清论坛看看有什么电影!
回复 支持 反对

使用道具 举报

人气偶像

高清币
7
金钱
1256
鲜花
0
在线时间
377 小时
最后登录
2018-12-6
发表于 2018-10-6 05:54:17 手机频道 | 显示全部楼层
谢谢楼主分享
回复 支持 反对

使用道具 举报

天王巨星

高清币
2
金钱
2804
鲜花
0
在线时间
818 小时
最后登录
2018-12-9
发表于 2018-10-6 06:01:22 | 显示全部楼层
每天都来中国高清论坛看看有什么电影!
回复 支持 反对

使用道具 举报

知名艺人

高清币
0
金钱
473
鲜花
0
在线时间
76 小时
最后登录
2018-12-10
发表于 2018-10-6 06:18:58 | 显示全部楼层
不错的片子,下载了
回复 支持 反对

使用道具 举报

金鸡奖主角

高清币
297
金钱
4574
鲜花
0
在线时间
945 小时
最后登录
2018-12-8
发表于 2018-10-6 06:21:17 | 显示全部楼层
我看不错噢 谢谢楼主!
回复 支持 反对

使用道具 举报

永恒神话

高清币
21237
金钱
29859
鲜花
0
在线时间
1201 小时
最后登录
2018-12-9
发表于 2018-10-6 06:28:06 | 显示全部楼层
楼主分享的高清电影太好了!
回复 支持 反对

使用道具 举报

天王巨星

高清币
63
金钱
2732
鲜花
0
在线时间
739 小时
最后登录
2018-12-10
发表于 2018-10-6 06:31:15 | 显示全部楼层
中国高清论坛很棒!
回复 支持 反对

使用道具 举报

好莱坞明星

高清币
310
金钱
6513
鲜花
0
在线时间
2889 小时
最后登录
2018-12-1
发表于 2018-10-6 06:39:03 | 显示全部楼层
谢谢楼主发布好电影。
回复 支持 反对

使用道具 举报

金鸡奖主角

高清币
381
金钱
4860
鲜花
0
在线时间
721 小时
最后登录
2018-12-10
发表于 2018-10-6 06:41:35 | 显示全部楼层
每天都来中国高清论坛看看有什么电影!
回复 支持 反对

使用道具 举报

懒得打字嘛,点击右侧快捷回复 【右侧内容,后台自定义】
您需要登录后才可以回帖 登录 | 立即注册

本版积分规则

QQ|手机版|小黑屋|中国高清论坛 ( 黔ICP备16007815号-1 )

GMT+8, 2018-12-10 10:17 , Processed in 0.109388 second(s), 31 queries .

Powered by Discuz! X3.4

© 2001-2017 Comsenz Inc.

快速回复 返回顶部 返回列表