请选择 进入手机版 | 继续访问电脑版

中国高清论坛

 找回密码
 立即注册
111
搜索
查看: 3830|回复: 896

[动作片] 死亡飞车4:混乱之上/死亡飞车4 Death.Race.4.Beyond.Anarchy.2018.1080p.BluRay.x264.DTS-HD.MA.5.

  [复制链接]

超级版主

高清币
959627
金钱
30532
鲜花
2
在线时间
4086 小时
最后登录
2018-12-10
发表于 2018-10-9 15:33:14 | 显示全部楼层 |阅读模式
本帖最后由 ccbby 于 2018-10-14 02:39 编辑


◎译  名 死亡飞车4:混乱之上/死亡飞车4
◎片  名 Death Race 4: Beyond Anarchy
◎年  代 2018
◎产  地 美国
◎类  别 动作
◎语  言 英语
◎上映日期 2018-01-30(美国)
◎豆瓣评分 5.3/10 from 1,609 users
◎豆瓣链接 https://movie.douban.com/subject/26920071/
◎片  长 111分钟
◎导  演 唐·迈克尔·保罗 Don Michael Paul
◎主  演 扎克·麦克格温 Zach McGowan
      弗雷德里克·凯勒 Frederick Koehler
      克里斯汀·马扎诺 Christine Marzano
      张茵 Yennis Cheung
      凯西·克莱尔 Cassie Clare
      露西·阿登 Lucy Aarden
      丹尼·特雷霍 Danny Trejo
      丹尼·格洛弗 Danny Glover
      洛丽娜·卡姆布罗瓦 Lorina Kamburova
      尼古拉斯·阿隆 Nicholas Aaron
      维利斯拉夫·帕夫洛夫 Velislav Pavlov
      卡梅伦·杰克 Cameron Jack
      朱利安·西格尔 Julian Seager

◎简  介

  美国失业率飙升,城市沦为犯罪汪洋,政府启动最高法,建高墙围起一占地355万平方米的韦兰德区域安置罪犯。墙内的飙车党以弗兰肯斯坦为首,则玩起了死亡车赛,并通过网络直播成为平民世界的精神领袖。这引起了政府的不满,警察部门意图消灭弗兰肯斯坦的势力和威望,却告失败。新一批罪犯唐纳·吉布森、吉普希·萝丝等人被狱警用直升机投放到韦兰德监狱,他们也参与到死亡飞车比赛中。








  1. Video
  2. ID : 1
  3. Format : AVC
  4. Format/Info : Advanced Video Codec
  5. Format profile : High@L4.1
  6. Format settings : CABAC / 4 Ref Frames
  7. Format settings, CABAC : Yes
  8. Format settings, ReFrames : 4 frames
  9. Codec ID : V_MPEG4/ISO/AVC
  10. Duration : 1 h 50 min
  11. Bit rate : 8 362 kb/s
  12. Width : 1 920 pixels
  13. Height : 1 080 pixels
  14. Display aspect ratio : 16:9
  15. Frame rate mode : Constant
  16. Frame rate : 23.976 (24000/1001) FPS
  17. Color space : YUV
  18. Chroma subsampling : 4:2:0
  19. Bit depth : 8 bits
  20. Scan type : Progressive
  21. Bits/(Pixel*Frame) : 0.168
  22. Stream size : 6.48 GiB (65%)
  23. Title : Death.Race.4.Beyond.Anarchy.2018.1080p.BluRay.x264.DTS-HD.MA.5.1-FGT
  24. Writing library : x264 core 157 r2932 303c484
  25. Encoding settings : cabac=1 / ref=4 / deblock=1:-3:-3 / analyse=0x3:0x113 / me=umh / subme=8 / psy=1 / psy_rd=1.00:0.00 / mixed_ref=1 / me_range=32 / chroma_me=1 / trellis=2 / 8x8dct=1 / cqm=0 / deadzone=21,11 / fast_pskip=1 / chroma_qp_offset=-2 / threads=24 / lookahead_threads=4 / sliced_threads=0 / nr=0 / decimate=1 / interlaced=0 / bluray_compat=0 / constrained_intra=0 / bframes=3 / b_pyramid=2 / b_adapt=2 / b_bias=0 / direct=3 / weightb=1 / open_gop=0 / weightp=2 / keyint=240 / keyint_min=24 / scenecut=40 / intra_refresh=0 / rc_lookahead=50 / rc=2pass / mbtree=1 / bitrate=8362 / ratetol=1.0 / qcomp=0.60 / qpmin=0 / qpmax=69 / qpstep=4 / cplxblur=20.0 / qblur=0.5 / ip_ratio=1.40 / aq=3:0.80
  26. Language : English
  27. Default : Yes
  28. Forced : No

  29. Audio
  30. ID : 2
  31. Format : DTS XLL
  32. Format/Info : Digital Theater Systems
  33. Commercial name : DTS-HD Master Audio
  34. Codec ID : A_DTS
  35. Duration : 1 h 50 min
  36. Bit rate mode : Variable
  37. Bit rate : 4 424 kb/s
  38. Channel(s) : 6 channels
  39. Channel layout : C L R Ls Rs LFE
  40. Sampling rate : 48.0 kHz
  41. Frame rate : 93.750 FPS (512 SPF)
  42. Bit depth : 24 bits
  43. Compression mode : Lossless
  44. Stream size : 3.43 GiB (35%)
  45. Title : Death.Race.4.Beyond.Anarchy.2018.1080p.BluRay.x264.DTS-HD.MA.5.1-FGT
  46. Language : English
  47. Default : Yes
  48. Forced : No

  49. Text #1
  50. ID : 3
  51. Format : UTF-8
  52. Codec ID : S_TEXT/UTF8
  53. Codec ID/Info : UTF-8 Plain Text
  54. Duration : 1 h 44 min
  55. Bit rate : 37 b/s
  56. Count of elements : 858
  57. Stream size : 28.7 KiB (0%)
  58. Title : English-SRT
  59. Language : English
  60. Default : Yes
  61. Forced : No

  62. Text #2
  63. ID : 4
  64. Format : UTF-8
  65. Codec ID : S_TEXT/UTF8
  66. Codec ID/Info : UTF-8 Plain Text
  67. Duration : 1 h 46 min
  68. Bit rate : 41 b/s
  69. Count of elements : 1046
  70. Stream size : 32.3 KiB (0%)
  71. Title : English-SDH-SRT
  72. Language : English
  73. Default : No
  74. Forced : No

  75. Text #3
  76. ID : 5
  77. Format : PGS
  78. Muxing mode : zlib
  79. Codec ID : S_HDMV/PGS
  80. Codec ID/Info : Picture based subtitle format used on BDs/HD-DVDs
  81. Duration : 1 h 46 min
  82. Bit rate : 28.2 kb/s
  83. Count of elements : 2094
  84. Stream size : 21.5 MiB (0%)
  85. Title : English-PGS
  86. Language : English
  87. Default : No
  88. Forced : No

  89. Text #4
  90. ID : 6
  91. Format : PGS
  92. Muxing mode : zlib
  93. Codec ID : S_HDMV/PGS
  94. Codec ID/Info : Picture based subtitle format used on BDs/HD-DVDs
  95. Duration : 1 h 50 min
  96. Bit rate : 22.9 kb/s
  97. Count of elements : 1680
  98. Stream size : 18.1 MiB (0%)
  99. Title : French-PGS
  100. Language : French
  101. Default : No
  102. Forced : No

  103. Text #5
  104. ID : 7
  105. Format : PGS
  106. Muxing mode : zlib
  107. Codec ID : S_HDMV/PGS
  108. Codec ID/Info : Picture based subtitle format used on BDs/HD-DVDs
  109. Duration : 1 h 50 min
  110. Bit rate : 23.7 kb/s
  111. Count of elements : 1718
  112. Stream size : 18.7 MiB (0%)
  113. Title : Spanish-PGS
  114. Language : Spanish
  115. Default : No
  116. Forced : No

  117. Menu
  118. 00:00:00.000 : en:Chapter 01
  119. 00:08:12.241 : en:Chapter 02
  120. 00:15:38.437 : en:Chapter 03
  121. 00:20:44.910 : en:Chapter 04
  122. 00:25:46.336 : en:Chapter 05
  123. 00:29:20.967 : en:Chapter 06
  124. 00:35:49.564 : en:Chapter 07
  125. 00:41:29.111 : en:Chapter 08
  126. 00:47:44.403 : en:Chapter 09
  127. 00:52:28.436 : en:Chapter 10
  128. 00:56:38.186 : en:Chapter 11
  129. 01:00:13.443 : en:Chapter 12
  130. 01:07:00.641 : en:Chapter 13
  131. 01:12:50.199 : en:Chapter 14
  132. 01:17:51.833 : en:Chapter 15
  133. 01:21:55.952 : en:Chapter 16
  134. 01:28:38.604 : en:Chapter 17
  135. 01:32:56.487 : en:Chapter 18
  136. 01:38:02.418 : en:Chapter 19
  137. 01:45:55.766 : en:Chapter 20
复制代码
游客,如果您要查看本帖隐藏内容请回复

回复

使用道具 举报

超级明星

高清币
247
金钱
8412
鲜花
0
在线时间
1318 小时
最后登录
2018-10-29
发表于 2018-10-9 15:35:02 | 显示全部楼层
感谢楼主分享精彩电影!
回复 支持 反对

使用道具 举报

金鸡奖主角

高清币
1159
金钱
4993
鲜花
0
在线时间
1577 小时
最后登录
2018-12-9
发表于 2018-10-9 15:37:22 | 显示全部楼层
中国高清论坛很棒!
回复 支持 反对

使用道具 举报

永恒神话

高清币
5970
金钱
13252
鲜花
0
在线时间
711 小时
最后登录
2018-12-9
发表于 2018-10-9 15:38:33 | 显示全部楼层
感谢楼主分享精彩电影!
回复 支持 反对

使用道具 举报

人气偶像

高清币
34
金钱
2015
鲜花
0
在线时间
432 小时
最后登录
2018-12-9
发表于 2018-10-9 15:39:05 | 显示全部楼层
感谢楼主分享精彩电影!
回复 支持 反对

使用道具 举报

金鸡奖主角

高清币
1655
金钱
3301
鲜花
0
在线时间
889 小时
最后登录
2018-12-10
发表于 2018-10-9 15:39:29 | 显示全部楼层
每天都来中国高清论坛看看有什么电影!
回复 支持 反对

使用道具 举报

禁止发言

高清币
53
金钱
73
鲜花
0
在线时间
8 小时
最后登录
2018-10-16
发表于 2018-10-9 15:41:15 | 显示全部楼层
提示: 作者被禁止或删除 内容自动屏蔽
回复 支持 反对

使用道具 举报

superstar

高清币
4032
金钱
6582
鲜花
0
在线时间
452 小时
最后登录
2018-12-10
发表于 2018-10-9 15:41:23 | 显示全部楼层
每天都来中国高清论坛看看有什么电影!
回复 支持 反对

使用道具 举报

知名艺人

高清币
1
金钱
498
鲜花
0
在线时间
101 小时
最后登录
2018-12-8
发表于 2018-10-9 15:42:03 | 显示全部楼层

回复 支持 反对

使用道具 举报

人气偶像

高清币
18
金钱
1474
鲜花
0
在线时间
426 小时
最后登录
2018-12-6
发表于 2018-10-9 15:43:05 | 显示全部楼层
其实我一直觉得楼主的品味不错!呵呵!
回复 支持 反对

使用道具 举报

懒得打字嘛,点击右侧快捷回复 【右侧内容,后台自定义】
您需要登录后才可以回帖 登录 | 立即注册

本版积分规则

QQ|手机版|小黑屋|中国高清论坛 ( 黔ICP备16007815号-1 )

GMT+8, 2018-12-10 10:36 , Processed in 0.157451 second(s), 31 queries .

Powered by Discuz! X3.4

© 2001-2017 Comsenz Inc.

快速回复 返回顶部 返回列表