请选择 进入手机版 | 继续访问电脑版

中国高清论坛

 找回密码
 立即注册
111
搜索
查看: 1855|回复: 371

[惊悚片] 山 Dag.2012.1080p.WEB-DL.LakeFilms.2.85GB

  [复制链接]

超级版主

高清币
959500
金钱
30530
鲜花
2
在线时间
4086 小时
最后登录
2018-12-10
发表于 2018-10-11 14:41:28 | 显示全部楼层 |阅读模式




◎译  名 山
◎片  名 Dag
◎年  代 2012
◎国  家 土耳其
◎类  别 剧情/惊悚/冒险
◎语  言 土耳其语
◎IMDb评分 8.1/10 from 16,263 users
◎IMDB链接 https://www.imdb.com/title/tt2471640/
◎上映日期  2012-11-16(土耳其)
◎片  长 90分钟
◎导  演 阿尔珀·卡格拉
◎主  演 查拉尔·厄图鲁
      乌富克·巴伊拉克塔尔
      发拉特·多格如罗格鲁
      梅苏特·阿库斯塔
      辛格兹·寇斯坎
           阿里·阿克索兹
      

◎简  介

       一个由四人组成的团队从总部派往维修一个通讯站,突然在一座山的山峰上遭遇了恐怖袭击。两个被征召的土耳其士兵,一个受过教育,富有的年轻人,另一个粗鲁的街头聪明的恶棍,不得不抛开他们的分歧,学会相互信任,以度过一个无情的局面。





  1. General
  2. Unique ID : 237536623383359830298926389823278520676 (0xB2B3E3BBECE96BEBF8AA5F7918359964)
  3. Complete name : D:LakeFIlmsDag.2012.1080p.WEB-DL.LakeFilms.mkv
  4. Format : Matroska
  5. Format version : Version 4
  6. File size : 2.85 GiB
  7. Duration : 1 h 26 min
  8. Overall bit rate : 4 717 kb/s
  9. Encoded date : UTC 2018-10-10 15:42:43
  10. Writing application : mkvmerge v27.0.0 ('Metropolis') 64-bit
  11. Writing library : libebml v1.3.6 + libmatroska v1.4.9

  12. Video
  13. ID : 1
  14. Format : AVC
  15. Format/Info : Advanced Video Codec
  16. Format profile : Main@L4.1
  17. Format settings : CABAC / 4 Ref Frames
  18. Format settings, CABAC : Yes
  19. Format settings, ReFrames : 4 frames
  20. Codec ID : V_MPEG4/ISO/AVC
  21. Duration : 1 h 26 min
  22. Bit rate : 4 269 kb/s
  23. Width : 1 920 pixels
  24. Height : 1 080 pixels
  25. Display aspect ratio : 16:9
  26. Frame rate mode : Constant
  27. Frame rate : 24.000 FPS
  28. Color space : YUV
  29. Chroma subsampling : 4:2:0
  30. Bit depth : 8 bits
  31. Scan type : Progressive
  32. Bits/(Pixel*Frame) : 0.086
  33. Stream size : 2.58 GiB (91%)
  34. Language : English
  35. Default : Yes
  36. Forced : No
  37. Color range : Limited
  38. Color primaries : BT.709
  39. Transfer characteristics : BT.709
  40. Matrix coefficients : BT.709

  41. Audio
  42. ID : 2
  43. Format : AAC LC
  44. Format/Info : Advanced Audio Codec Low Complexity
  45. Codec ID : A_AAC-2
  46. Duration : 1 h 26 min
  47. Bit rate : 445 kb/s
  48. Channel(s) : 6 channels
  49. Channel layout : C L R Ls Rs LFE
  50. Sampling rate : 48.0 kHz
  51. Frame rate : 46.875 FPS (1024 SPF)
  52. Compression mode : Lossy
  53. Stream size : 276 MiB (9%)
  54. Language : English
  55. Default : Yes
  56. Forced : No
复制代码
游客,如果您要查看本帖隐藏内容请回复

回复

使用道具 举报

金鸡奖主角

高清币
356
金钱
3369
鲜花
0
在线时间
213 小时
最后登录
2018-12-9
发表于 2018-10-11 14:45:37 | 显示全部楼层
每天都来中国高清论坛看看有什么电影!
回复 支持 反对

使用道具 举报

永恒神话

高清币
14619
金钱
21849
鲜花
0
在线时间
3079 小时
最后登录
2018-12-9
发表于 2018-10-11 14:47:24 | 显示全部楼层
每天都来中国高清论坛看看有什么电影!
回复 支持 反对

使用道具 举报

永恒神话

高清币
10783
金钱
15212
鲜花
0
在线时间
1241 小时
最后登录
2018-12-7
发表于 2018-10-11 14:51:06 | 显示全部楼层
我看不错噢 谢谢楼主!
回复 支持 反对

使用道具 举报

金鸡奖主角

高清币
419
金钱
6147
鲜花
0
在线时间
3182 小时
最后登录
2018-12-10
发表于 2018-10-11 14:51:38 | 显示全部楼层
既然你诚信诚意的推荐了,那我就勉为其难的看看吧!
回复 支持 反对

使用道具 举报

永恒神话

高清币
6940
金钱
26161
鲜花
0
在线时间
1638 小时
最后登录
2018-12-10
发表于 2018-10-11 14:57:03 | 显示全部楼层
感谢分享精彩好电影!!!
回复 支持 反对

使用道具 举报

知名艺人

高清币
3
金钱
132
鲜花
0
在线时间
12 小时
最后登录
2018-11-8
发表于 2018-10-11 15:03:10 | 显示全部楼层
好资源,楼主辛苦了~~感谢分享!
回复 支持 反对

使用道具 举报

永恒神话

高清币
378
金钱
49414
鲜花
0
在线时间
2085 小时
最后登录
2018-12-7
发表于 2018-10-11 15:05:09 | 显示全部楼层
每天都来中国高清论坛看看有什么电影!
回复 支持 反对

使用道具 举报

人气偶像

高清币
33
金钱
1023
鲜花
0
在线时间
345 小时
最后登录
2018-12-9
发表于 2018-10-11 15:08:38 | 显示全部楼层
每天都来中国高清论坛看看有什么电影!
回复 支持 反对

使用道具 举报

金鸡奖主角

高清币
10
金钱
4650
鲜花
0
在线时间
1768 小时
最后登录
2018-12-10
发表于 2018-10-11 15:11:18 | 显示全部楼层
好东东 收下了
回复 支持 反对

使用道具 举报

懒得打字嘛,点击右侧快捷回复 【右侧内容,后台自定义】
您需要登录后才可以回帖 登录 | 立即注册

本版积分规则

QQ|手机版|小黑屋|中国高清论坛 ( 黔ICP备16007815号-1 )

GMT+8, 2018-12-10 09:53 , Processed in 0.089522 second(s), 31 queries .

Powered by Discuz! X3.4

© 2001-2017 Comsenz Inc.

快速回复 返回顶部 返回列表