请选择 进入手机版 | 继续访问电脑版

中国高清论坛

 找回密码
 立即注册
111
搜索
查看: 613|回复: 100

[传记片] 盛夏/摇滚盛夏(港) LeTo.2018.WEB-DL.1080p-Unknown 4.24 GiB

  [复制链接]

区域版主

高清币
13771
金钱
32405
鲜花
-88
在线时间
10549 小时
最后登录
2018-12-10
发表于 2018-10-11 22:50:39 | 显示全部楼层 |阅读模式


◎译  名 盛夏/摇滚盛夏(港)
◎片  名  Leto/Summer/ЛЕТО
◎年  代 2017
◎国  家 俄罗斯
◎类  别 传记/音乐/爱情
◎语  言 俄语
◎IMDb评分 7.5/10 from 1,442 users
◎IMDB链接 https://www.imdb.com/title/tt7342838/
◎片  长 2 h 8 min
◎导  演 基里尔·谢列布连尼科夫 Kirill Serebrennikov
◎主  演 刘太旿 Teo Yoo
       伊琳娜·斯达申鲍姆 Irina Starshenbaum
       罗曼·比利克 Roman Bilyk
       菲利普·阿杰耶夫 Fillip Adeyev
       亚历山大·戈尔奇林 Aleksandr Gorchilin


◎简  介


  这是一个关于摇滚、爱情和友谊的故事。列宁格勒,80年代初的一个夏天:摇滚音乐在当地风靡一时。Viktor Tsoï是位年轻的音乐家,就像其他年轻人一样,他也被齐柏林飞船和大卫·鲍伊的音乐所吸引,并尝试在摇滚乐坛上闯出一片名堂。一天,他遇到了偶像Mike和他漂亮的妻子Natacha。这次邂逅使他的命运发生了巨大转变。他们三人将一同写就Viktor的传奇,使他名留青史。

获奖记录

戛纳电影节(2018;第71届)
提名
·金棕榈奖
  1. eneral
  2. Уникальный идентификатор : 251549874506306558465085102077514747277 (0xBD3EBE5B6163E62BA042D8CF4B4E0D8D)
  3. Полное имя : F:TorrentLeto1080p.mkv
  4. Формат : Matroska
  5. Версия формата : Version 4 / Version 2
  6. Размер файла : 4.24 GiB
  7. Продолжительность : 2 h 8 min
  8. Общий поток : 4 719 kb/s
  9. Дата кодирования : UTC 2018-07-28 17:22:39
  10. Программа кодирования : mkvmerge v9.5.0 ('Quiet Fire') 64bit
  11. Библиотека кодирования : libebml v1.3.4 + libmatroska v1.4.5

  12. Video
  13. Идентификатор : 1
  14. Формат : AVC
  15. Формат/Информация : Advanced Video Codec
  16. Профиль формата : High@L4
  17. Настройки формата : CABAC / 5 Ref Frames
  18. Параметр CABAC формата : Yes
  19. Параметр RefFrames формата : 5 frames
  20. Идентификатор кодека : V_MPEG4/ISO/AVC
  21. Продолжительность : 2 h 8 min
  22. Битрейт : 4 525 kb/s
  23. Ширина : 1 920 pixels
  24. Высота : 796 pixels
  25. Соотношение сторон : 2.40:1
  26. Режим частоты кадров : Constant
  27. Частота кадров : 23.976 FPS
  28. Цветовое пространство : YUV
  29. Субдискретизация насыщенности : 4:2:0
  30. Битовая глубина : 8 bits
  31. Тип развёртки : Progressive
  32. Бит/(Пиксели*Кадры) : 0.124
  33. Размер потока : 4.06 GiB (96%)
  34. Язык : English
  35. Default : Yes
  36. Forced : No
  37. Цветовой диапазон : Limited
  38. Основные цвета : BT.709
  39. Характеристики трансфера : BT.709
  40. Коэффициенты матрицы : BT.709

  41. Audio
  42. Идентификатор : 2
  43. Формат : AC-3
  44. Формат/Информация : Audio Coding 3
  45. Идентификатор кодека : A_AC3
  46. Продолжительность : 2 h 8 min
  47. Вид битрейта : Constant
  48. Битрейт : 192 kb/s
  49. Каналы : 2 channels
  50. Расположение каналов : Front: L R
  51. Частота : 48.0 kHz
  52. Частота кадров : 31.250 FPS (1536 SPF)
  53. Битовая глубина : 16 bits
  54. Метод сжатия : Lossy
  55. Размер потока : 177 MiB (4%)
  56. Язык : Russian
  57. Default : Yes
  58. Forced : No

  59. Menu
  60. 00:00:00.000 : en:1
  61. 00:07:49.678 : en:2
  62. 00:19:53.276 : en:3
  63. 00:26:38.055 : en:4
  64. 00:33:11.531 : en:5
  65. 00:39:21.359 : en:6
  66. 00:47:48.532 : en:7
  67. 00:57:58.683 : en:8
  68. 01:03:25.968 : en:9
  69. 01:11:15.771 : en:10
  70. 01:19:38.148 : en:11
  71. 01:27:43.925 : en:12
  72. 01:34:11.103 : en:13
  73. 01:44:15.874 : en:14
  74. 01:50:17.652 : en:15
  75. 01:58:53.834 : en:16
复制代码




游客,如果您要查看本帖隐藏内容请回复

回复

使用道具 举报

金鸡奖主角

高清币
1280
金钱
2624
鲜花
0
在线时间
164 小时
最后登录
2018-12-8
发表于 2018-10-11 22:53:28 | 显示全部楼层

感谢楼主分享精彩电影!
回复 支持 反对

使用道具 举报

超级明星

高清币
2819
金钱
5188
鲜花
0
在线时间
671 小时
最后登录
2018-11-14
发表于 2018-10-11 22:55:09 | 显示全部楼层
每天都来中国高清论坛看看有什么电影!
回复 支持 反对

使用道具 举报

天王巨星

高清币
596
金钱
1710
鲜花
0
在线时间
184 小时
最后登录
2018-12-6
发表于 2018-10-11 23:00:33 | 显示全部楼层
感谢楼主分享精彩电影!
回复 支持 反对

使用道具 举报

超级明星

高清币
3118
金钱
6141
鲜花
0
在线时间
824 小时
最后登录
2018-12-9
发表于 2018-10-11 23:01:44 | 显示全部楼层
感谢楼主分享
回复 支持 反对

使用道具 举报

金鸡奖主角

高清币
1
金钱
3668
鲜花
0
在线时间
583 小时
最后登录
2018-12-9
发表于 2018-10-11 23:02:16 | 显示全部楼层
楼主,我太崇拜你了!
回复 支持 反对

使用道具 举报

天王巨星

高清币
19
金钱
2869
鲜花
0
在线时间
485 小时
最后登录
2018-12-9
发表于 2018-10-11 23:08:26 | 显示全部楼层
Thank 4 Sharing!
回复 支持 反对

使用道具 举报

金鸡奖主角

高清币
106
金钱
4545
鲜花
0
在线时间
388 小时
最后登录
2018-12-9
发表于 2018-10-11 23:20:31 | 显示全部楼层
楼主分享的高清电影太好了!
回复 支持 反对

使用道具 举报

知名艺人

高清币
0
金钱
519
鲜花
0
在线时间
94 小时
最后登录
2018-12-9
发表于 2018-10-11 23:21:26 | 显示全部楼层
谢谢楼主无私分享
回复 支持 反对

使用道具 举报

金鸡奖主角

高清币
848
金钱
4237
鲜花
0
在线时间
169 小时
最后登录
2018-12-10
发表于 2018-10-11 23:32:02 | 显示全部楼层
每天都来中国高清论坛看看有什么电影!
回复 支持 反对

使用道具 举报

懒得打字嘛,点击右侧快捷回复 【右侧内容,后台自定义】
您需要登录后才可以回帖 登录 | 立即注册

本版积分规则

QQ|手机版|小黑屋|中国高清论坛 ( 黔ICP备16007815号-1 )

GMT+8, 2018-12-10 10:50 , Processed in 0.098187 second(s), 30 queries .

Powered by Discuz! X3.4

© 2001-2017 Comsenz Inc.

快速回复 返回顶部 返回列表