请选择 进入手机版 | 继续访问电脑版

中国高清论坛

 找回密码
 立即注册
111
搜索
查看: 702|回复: 81

[喜剧片] 妈妈咪呀2/妈妈咪呀!2//妈妈咪呀2:再次出发/妈妈咪呀:重蹈覆辙/妈妈咪呀!回来了(台)/妈妈咪呀!开心再嚟(港) Mamma.Mia.Here.We.Go

  [复制链接]

区域版主

高清币
13869
金钱
32613
鲜花
-88
在线时间
10596 小时
最后登录
2018-12-16
发表于 2018-10-11 23:12:30 | 显示全部楼层 |阅读模式


◎译  名 妈妈咪呀2/妈妈咪呀!2//妈妈咪呀2:再次出发/妈妈咪呀:重蹈覆辙/妈妈咪呀!回来了(台)/妈妈咪呀!开心再嚟(港)
◎片  名 Mamma Mia! Here We Go Again
◎年  代 2018
◎国  家 英国/美国
◎类  别 喜剧/爱情/歌舞
◎语  言 英语...
◎IMDb评分  7.2/10 from 31,540 users
◎IMDB链接 http://www.imdb.com/title/tt6911608
◎片  长 1 h 53 min
◎导  演 欧·帕克 Ol Parker
◎主  演 莉莉·詹姆斯 Lily James
      阿曼达·塞弗里德 Amanda Seyfried
      朱丽·沃特斯 Julie Walters
      克里斯汀·芭伦斯基 Christine Baranski
      皮尔斯·布鲁斯南 Pierce Brosnan
      斯特兰·斯卡斯加德 Stellan Skarsg?rd
      科林·费尔斯 Colin Firth
      多米尼克·库珀 Dominic Cooper
      杰瑞米·艾文 Jeremy Irvine
      亚历克萨·戴维斯 Alexa Davies
      杰西卡·基南·温 Jessica Keenan Wynn
      乔什·迪伦 Josh Dylan
      休·斯金纳 Hugh Skinner
      雪儿 Cher
      梅丽尔·斯特里普 Meryl Streep
      安迪·加西亚 Andy Garcia
      西莉亚·伊姆里 Celia Imrie
      欧米德·吉亚李利 Omid Djalili
      杰拉德·摩纳科 Gerard Monaco
      森尚子 Naoko Mori
      伊川东吾 Togo Igawa
      阿纳斯塔西娅·希尔 Anastasia Hille
      Susanne Barklund
      Jonathan Goldsmith
      凯西·克莱尔 Cassie Clare
      班尼·安德森 Benny Andersson
      戴尔·布兰斯顿 Dale Branston
      亚历珊德拉·福特 Alexandra Ford

◎简  介

  《妈妈咪呀2》由美国环球影业制作出品,是2008年歌舞喜剧电影《妈妈咪呀》的续篇,此次第一部的原班人马将悉数回归,而片中舞台剧的改编将会以瑞典著名乐队ABBA的歌曲为基础。续篇将围绕Sophie(阿曼达·塞弗里德 饰演)以及她的妈妈Donna(梅丽尔·斯特里普 饰演)年轻时的爱情故事展开---怀孕的Sophie一直自我质疑能否独自抚养孩子长大,直到她知道了Donna孤身一人将自己养育成人的经历,受到了极大鼓舞。年轻时的Donna将由莉莉·詹姆斯饰演,雪儿也将现身影片,饰演Sophie的外婆Ruby。
  1. General
  2. Unique ID : 228242294579448476223711591658794752869 (0xABB5DDF1C960C7568281F594A9339B65)
  3. Complete name : D:Video111mkvMamma.Mia.Here.We.Go.Again.2018.1080p.WEB-DL.Rus.Eng.TeamHD.mkv
  4. Format : Matroska
  5. Format version : Version 4
  6. File size : 4.71 GiB
  7. Duration : 1 h 53 min
  8. Overall bit rate : 5 935 kb/s
  9. Movie name : Mamma.Mia.Here.We.Go.Again.2018 TeamHD-селезень
  10. Encoded date : UTC 2018-10-11 14:40:07
  11. Writing application : mkvmerge v7.3.0 ('Nouages') 64bit built on Oct 22 2014 18:53:34
  12. Writing library : libebml v1.3.0 + libmatroska v1.4.1

  13. Video
  14. ID : 1
  15. Format : AVC
  16. Format/Info : Advanced Video Codec
  17. Format profile : High@L4.1
  18. Format settings : CABAC / 4 Ref Frames
  19. Format settings, CABAC : Yes
  20. Format settings, ReFrames : 4 frames
  21. Codec ID : V_MPEG4/ISO/AVC
  22. Duration : 1 h 53 min
  23. Bit rate : 5 165 kb/s
  24. Width : 1 920 pixels
  25. Height : 800 pixels
  26. Display aspect ratio : 2.40:1
  27. Frame rate mode : Constant
  28. Frame rate : 23.976 (24000/1001) FPS
  29. Color space : YUV
  30. Chroma subsampling : 4:2:0
  31. Bit depth : 8 bits
  32. Scan type : Progressive
  33. Bits/(Pixel*Frame) : 0.140
  34. Stream size : 4.10 GiB (87%)
  35. Language : English
  36. Default : Yes
  37. Forced : No

  38. Audio #1
  39. ID : 2
  40. Format : AC-3
  41. Format/Info : Audio Coding 3
  42. Commercial name : Dolby Digital
  43. Codec ID : A_AC3
  44. Duration : 1 h 53 min
  45. Bit rate mode : Constant
  46. Bit rate : 384 kb/s
  47. Channel(s) : 6 channels
  48. Channel layout : L R C LFE Ls Rs
  49. Sampling rate : 48.0 kHz
  50. Frame rate : 31.250 FPS (1536 SPF)
  51. Bit depth : 16 bits
  52. Compression mode : Lossy
  53. Stream size : 312 MiB (6%)
  54. Title : Dub [iTunes]
  55. Language : Russian
  56. Service kind : Complete Main
  57. Default : Yes
  58. Forced : Yes

  59. Audio #2
  60. ID : 3
  61. Format : AC-3
  62. Format/Info : Audio Coding 3
  63. Commercial name : Dolby Digital
  64. Codec ID : A_AC3
  65. Duration : 1 h 53 min
  66. Bit rate mode : Constant
  67. Bit rate : 384 kb/s
  68. Channel(s) : 6 channels
  69. Channel layout : L R C LFE Ls Rs
  70. Sampling rate : 48.0 kHz
  71. Frame rate : 31.250 FPS (1536 SPF)
  72. Bit depth : 16 bits
  73. Compression mode : Lossy
  74. Stream size : 312 MiB (6%)
  75. Title : Original
  76. Language : English
  77. Service kind : Complete Main
  78. Default : No
  79. Forced : No

  80. Text #1
  81. ID : 4
  82. Format : UTF-8
  83. Codec ID : S_TEXT/UTF8
  84. Codec ID/Info : UTF-8 Plain Text
  85. Duration : 1 h 53 min
  86. Bit rate : 75 b/s
  87. Count of elements : 2177
  88. Stream size : 62.4 KiB (0%)
  89. Title : SDH
  90. Language : English
  91. Default : No
  92. Forced : No

  93. Text #2
  94. ID : 5
  95. Format : UTF-8
  96. Codec ID : S_TEXT/UTF8
  97. Codec ID/Info : UTF-8 Plain Text
  98. Duration : 1 h 51 min
  99. Bit rate : 153 b/s
  100. Count of elements : 2134
  101. Stream size : 126 KiB (0%)
  102. Title : SDH (Colored)
  103. Language : English
  104. Default : No
  105. Forced : No

  106. Menu
  107. 00:00:00.000 : en:1
  108. 00:03:00.805 : en:2
  109. 00:09:09.798 : en:3
  110. 00:16:42.000 : en:4
  111. 00:24:24.712 : en:5
  112. 00:26:56.029 : en:6
  113. 00:34:59.887 : en:7
  114. 00:39:14.474 : en:8
  115. 00:43:48.498 : en:9
  116. 00:50:28.356 : en:10
  117. 00:53:27.868 : en:11
  118. 00:58:32.672 : en:12
  119. 01:04:53.386 : en:13
  120. 01:15:12.296 : en:14
  121. 01:24:54.044 : en:15
  122. 01:27:05.508 : en:16
  123. 01:28:59.914 : en:17
  124. 01:33:02.781 : en:18
  125. 01:37:20.246 : en:19
  126. 01:43:10.512 : en:20
复制代码

游客,如果您要查看本帖隐藏内容请回复
回复

使用道具 举报

金鸡奖主角

高清币
16
金钱
5007
鲜花
0
在线时间
822 小时
最后登录
2018-12-16
发表于 2018-10-11 23:14:19 | 显示全部楼层
好好的,谢谢分享了。
回复 支持 反对

使用道具 举报

好莱坞明星

高清币
1930
金钱
4868
鲜花
0
在线时间
870 小时
最后登录
2018-12-15
发表于 2018-10-11 23:25:30 | 显示全部楼层
既然你诚信诚意的推荐了,那我就勉为其难的看看吧!
回复 支持 反对

使用道具 举报

人气偶像

高清币
1
金钱
1645
鲜花
0
在线时间
273 小时
最后登录
2018-12-16
发表于 2018-10-11 23:25:58 | 显示全部楼层
其实我一直觉得楼主的品味不错!呵呵!
回复 支持 反对

使用道具 举报

金鸡奖主角

高清币
879
金钱
4410
鲜花
0
在线时间
175 小时
最后登录
2018-12-16
发表于 2018-10-11 23:27:14 | 显示全部楼层
每天都来中国高清论坛看看有什么电影!
回复 支持 反对

使用道具 举报

天王巨星

高清币
176
金钱
1876
鲜花
0
在线时间
810 小时
最后登录
2018-12-16
发表于 2018-10-11 23:30:27 | 显示全部楼层
楼主分享的高清电影太好了!
回复 支持 反对

使用道具 举报

好莱坞明星

高清币
1492
金钱
4124
鲜花
0
在线时间
543 小时
最后登录
2018-12-16
发表于 2018-10-11 23:37:21 | 显示全部楼层
楼主发片辛苦,希望继续努力!
回复 支持 反对

使用道具 举报

人气偶像

高清币
0
金钱
1814
鲜花
0
在线时间
320 小时
最后登录
2018-12-2
发表于 2018-10-11 23:39:08 | 显示全部楼层
好东西 顶上
回复 支持 反对

使用道具 举报

人气偶像

高清币
27
金钱
1428
鲜花
0
在线时间
243 小时
最后登录
2018-12-9
发表于 2018-10-11 23:43:18 | 显示全部楼层
其实我一直觉得楼主的品味不错!呵呵!
回复 支持 反对

使用道具 举报

好莱坞明星

高清币
1930
金钱
4868
鲜花
0
在线时间
870 小时
最后登录
2018-12-15
发表于 2018-10-11 23:46:42 | 显示全部楼层
常有理.....谢谢!
回复 支持 反对

使用道具 举报

懒得打字嘛,点击右侧快捷回复 【右侧内容,后台自定义】
您需要登录后才可以回帖 登录 | 立即注册

本版积分规则

QQ|手机版|小黑屋|中国高清论坛 ( 黔ICP备16007815号-1 )

GMT+8, 2018-12-16 04:29 , Processed in 0.094775 second(s), 30 queries .

Powered by Discuz! X3.4

© 2001-2017 Comsenz Inc.

快速回复 返回顶部 返回列表