请选择 进入手机版 | 继续访问电脑版

中国高清论坛

 找回密码
 立即注册
111
搜索
查看: 1071|回复: 148

[惊悚片] 7月22日/挪威7·22爆炸枪击案/0722:极右挪威(台)/7月22日:当挪威不再挪威(港) 22.July.2018.1080p.WEB-DL.Rus.En

  [复制链接]

区域版主

高清币
13768
金钱
32399
鲜花
-88
在线时间
10549 小时
最后登录
2018-12-10
发表于 2018-10-11 23:45:50 | 显示全部楼层 |阅读模式
本帖最后由 jinggangshi 于 2018-10-11 23:52 编辑



◎译  名 7月22日/挪威7·22爆炸枪击案/0722:极右挪威(台)/7月22日:当挪威不再挪威(港)
◎片  名 22 July
◎年  代 2018
◎国  家 挪威/冰岛/美国
◎类  别 剧情/惊悚/传记
◎语  言 英语...
◎IMDb评分 6.4/10 from 325 users
◎IMDB链接 https://www.imdb.com/title/tt7280898/
◎片  长 2 h 24 min
◎导  演 保罗·格林格拉斯 Paul Greengrass
◎主  演 托尔比约恩·哈尔 Thorbj?rn Harr
       安德斯·丹尼尔森·李
       Ola G. Furuseth
       Jon ?igarden
       拉尔斯·阿兰兹-汉森
       约瑟夫·李 Joseph Lee

◎简  介

  影片讲述挪威经历史上最多人死亡的恐怖袭击后的真实故事。2011 年 7 月 22 日,一名极右派极端分子在奥斯陆发动汽车炸弹袭击后,随即又在青年领袖训练营射击人群。本片藉由叙述一名生还者一路走来的身心转变,描绘整个国家步向疗愈与和解的历程。
  1. Полное имя : D:\22.July.2018.1080p.WEB-DL.Rus.Eng.EniaHD.mkv
  2. Формат : Matroska
  3. Версия формата : Version 4
  4. Размер файла : 7,03 Гбайт
  5. Продолжительность : 2 ч. 24 м.
  6. Режим общего битрейта : Переменный
  7. Общий поток : 6985 Кбит/сек
  8. Название фильма : 22 июля
  9. Дата кодирования : UTC 2018-10-10 18:07:43
  10. Программа кодирования : mkvmerge v26.0.0 ('In The Game') 32-bit
  11. Библиотека кодирования : libebml v1.3.6 + libmatroska v1.4.9
  12. Обложка : Yes
  13. Attachments : cover.jpg

  14. Видео
  15. Идентификатор : 1
  16. Формат : AVC
  17. Формат/Информация : Advanced Video Codec
  18. Профиль формата : Main@L4
  19. Настройки формата : CABAC / 3 Ref Frames
  20. Параметр CABAC формата : Да
  21. Параметр RefFrames формата : 3 кадра
  22. Идентификатор кодека : V_MPEG4/ISO/AVC
  23. Продолжительность : 2 ч. 24 м.
  24. Вид битрейта : Переменный
  25. Битрейт : 5800 Кбит/сек
  26. Максимальный битрейт : 8700 Кбит/сек
  27. Ширина : 1920 пикселей
  28. Высота : 1080 пикселей
  29. Соотношение сторон : 16:9
  30. Режим частоты кадров : Постоянный
  31. Частота кадров : 24,000 кадра/сек
  32. Цветовое пространство : YUV
  33. Субдискретизация насыщенности : 4:2:0
  34. Битовая глубина : 8 бит
  35. Тип развёртки : Прогрессивная
  36. Бит/(Пиксели*Кадры) : 0.117
  37. Размер потока : 5,73 Гбайт (82%)
  38. Заголовок : 22 July 2018 1080p WEB-DL Rus Eng EniaHD
  39. Библиотека кодирования : x264 core 148 r2715 7e75228
  40. Настройки программы : cabac=1 / ref=3 / deblock=1:0:0 / analyse=0x1:0x111 / me=umh / subme=10 / psy=1 / psy_rd=1.00:0.00 / mixed_ref=1 / me_range=24 / chroma_me=1 / trellis=2 / 8x8dct=0 / cqm=0 / deadzone=21,11 / fast_pskip=1 / chroma_qp_offset=-2 / threads=8 / lookahead_threads=1 / sliced_threads=0 / nr=0 / decimate=1 / interlaced=0 / bluray_compat=0 / stitchable=1 / constrained_intra=0 / bframes=2 / b_pyramid=0 / b_adapt=2 / b_bias=0 / direct=3 / weightb=1 / open_gop=0 / weightp=2 / keyint=48 / keyint_min=25 / scenecut=0 / intra_refresh=0 / rc_lookahead=48 / rc=2pass / mbtree=1 / bitrate=5800 / ratetol=1.0 / qcomp=0.50 / qpmin=6 / qpmax=51 / qpstep=4 / cplxblur=20.0 / qblur=0.5 / vbv_maxrate=8700 / vbv_bufsize=11600 / nal_hrd=vbr / filler=0 / ip_ratio=1.40 / aq=1:1.00
  41. Язык : English
  42. Default : Да
  43. Forced : Нет

  44. Аудио #1
  45. Идентификатор : 2
  46. Формат : E-AC-3
  47. Формат/Информация : Enhanced AC-3
  48. Коммерческое название : Dolby Digital Plus
  49. Идентификатор кодека : A_EAC3
  50. Продолжительность : 2 ч. 24 м.
  51. Вид битрейта : Постоянный
  52. Битрейт : 640 Кбит/сек
  53. Каналы : 6 каналов
  54. Channel layout : L R C LFE Ls Rs
  55. Частота : 48,0 КГц
  56. Частота кадров : 31,250 кадров/сек (1536 SPF)
  57. Метод сжатия : С потерями
  58. Размер потока : 659 Мбайт (9%)
  59. Заголовок : E-AC3 5.1 @ 640 kbps - DUB, Nevafilm
  60. Язык : Russian
  61. ServiceKind/String : Complete Main
  62. Default : Да
  63. Forced : Нет

  64. Аудио #2
  65. Идентификатор : 3
  66. Формат : E-AC-3
  67. Формат/Информация : Enhanced AC-3
  68. Коммерческое название : Dolby Digital Plus
  69. Идентификатор кодека : A_EAC3
  70. Продолжительность : 2 ч. 24 м.
  71. Вид битрейта : Постоянный
  72. Битрейт : 640 Кбит/сек
  73. Каналы : 6 каналов
  74. Channel layout : L R C LFE Ls Rs
  75. Частота : 48,0 КГц
  76. Частота кадров : 31,250 кадров/сек (1536 SPF)
  77. Метод сжатия : С потерями
  78. Размер потока : 659 Мбайт (9%)
  79. Заголовок : E-AC3 5.1 @ 640 kbps - Original
  80. Язык : English
  81. ServiceKind/String : Complete Main
  82. Default : Нет
  83. Forced : Нет

  84. Текст #1
  85. Идентификатор : 4
  86. Формат : UTF-8
  87. Идентификатор кодека : S_TEXT/UTF8
  88. Идентификатор кодека/Информация : UTF-8 Plain Text
  89. Продолжительность : 2 ч. 23 м.
  90. Битрейт : 2 бит/сек
  91. ElementCount : 45
  92. Размер потока : 2,78 Кбайт (0%)
  93. Заголовок : Forced
  94. Язык : Russian
  95. Default : Да
  96. Forced : Да

  97. Текст #2
  98. Идентификатор : 5
  99. Формат : UTF-8
  100. Идентификатор кодека : S_TEXT/UTF8
  101. Идентификатор кодека/Информация : UTF-8 Plain Text
  102. Продолжительность : 2 ч. 23 м.
  103. Битрейт : 71 бит/сек
  104. ElementCount : 1594
  105. Размер потока : 74,7 Кбайт (0%)
  106. Заголовок : Full
  107. Язык : Russian
  108. Default : Нет
  109. Forced : Нет

  110. Текст #3
  111. Идентификатор : 6
  112. Формат : UTF-8
  113. Идентификатор кодека : S_TEXT/UTF8
  114. Идентификатор кодека/Информация : UTF-8 Plain Text
  115. Продолжительность : 2 ч. 14 м.
  116. Битрейт : 47 бит/сек
  117. ElementCount : 1540
  118. Размер потока : 46,6 Кбайт (0%)
  119. Заголовок : Full
  120. Язык : English
  121. Default : Нет
  122. Forced : Нет

  123. Текст #4
  124. Идентификатор : 7
  125. Формат : UTF-8
  126. Идентификатор кодека : S_TEXT/UTF8
  127. Идентификатор кодека/Информация : UTF-8 Plain Text
  128. Продолжительность : 2 ч. 16 м.
  129. Битрейт : 55 бит/сек
  130. ElementCount : 1773
  131. Размер потока : 54,9 Кбайт (0%)
  132. Заголовок : Full SDH
  133. Язык : English
  134. Default : Нет
  135. Forced : Нет

  136. Текст #5
  137. Идентификатор : 8
  138. Формат : UTF-8
  139. Идентификатор кодека : S_TEXT/UTF8
  140. Идентификатор кодека/Информация : UTF-8 Plain Text
  141. Продолжительность : 2 ч. 23 м.
  142. Битрейт : 43 бит/сек
  143. ElementCount : 1605
  144. Размер потока : 45,6 Кбайт (0%)
  145. Заголовок : Swedish
  146. Язык : Swedish
  147. Default : Нет
  148. Forced : Нет

  149. Текст #6
  150. Идентификатор : 9
  151. Формат : UTF-8
  152. Идентификатор кодека : S_TEXT/UTF8
  153. Идентификатор кодека/Информация : UTF-8 Plain Text
  154. Продолжительность : 2 ч. 23 м.
  155. Битрейт : 41 бит/сек
  156. ElementCount : 1595
  157. Размер потока : 43,7 Кбайт (0%)
  158. Заголовок : Italian
  159. Язык : Italian
  160. Default : Нет
  161. Forced : Нет

  162. Текст #7
  163. Идентификатор : 10
  164. Формат : UTF-8
  165. Идентификатор кодека : S_TEXT/UTF8
  166. Идентификатор кодека/Информация : UTF-8 Plain Text
  167. Продолжительность : 2 ч. 23 м.
  168. Битрейт : 38 бит/сек
  169. ElementCount : 1594
  170. Размер потока : 40,3 Кбайт (0%)
  171. Заголовок : Polish
  172. Язык : Polish
  173. Default : Нет
  174. Forced : Нет

  175. Текст #8
  176. Идентификатор : 11
  177. Формат : UTF-8
  178. Идентификатор кодека : S_TEXT/UTF8
  179. Идентификатор кодека/Информация : UTF-8 Plain Text
  180. Продолжительность : 2 ч. 23 м.
  181. Битрейт : 44 бит/сек
  182. ElementCount : 1592
  183. Размер потока : 46,5 Кбайт (0%)
  184. Заголовок : Brazilian Portuguese
  185. Язык : Portuguese
  186. Default : Нет
  187. Forced : Нет

  188. Текст #9
  189. Идентификатор : 12
  190. Формат : UTF-8
  191. Идентификатор кодека : S_TEXT/UTF8
  192. Идентификатор кодека/Информация : UTF-8 Plain Text
  193. Продолжительность : 2 ч. 23 м.
  194. Битрейт : 43 бит/сек
  195. ElementCount : 1415
  196. Размер потока : 45,5 Кбайт (0%)
  197. Заголовок : Finnish
  198. Язык : Finnish
  199. Default : Нет
  200. Forced : Нет

  201. Текст #10
  202. Идентификатор : 13
  203. Формат : UTF-8
  204. Идентификатор кодека : S_TEXT/UTF8
  205. Идентификатор кодека/Информация : UTF-8 Plain Text
  206. Продолжительность : 2 ч. 23 м.
  207. Битрейт : 42 бит/сек
  208. ElementCount : 1602
  209. Размер потока : 44,3 Кбайт (0%)
  210. Заголовок : French
  211. Язык : French
  212. Default : Нет
  213. Forced : Нет

  214. Текст #11
  215. Идентификатор : 14
  216. Формат : UTF-8
  217. Идентификатор кодека : S_TEXT/UTF8
  218. Идентификатор кодека/Информация : UTF-8 Plain Text
  219. Продолжительность : 2 ч. 23 м.
  220. Битрейт : 43 бит/сек
  221. ElementCount : 1584
  222. Размер потока : 45,8 Кбайт (0%)
  223. Заголовок : Norwegian
  224. Язык : Norwegian
  225. Default : Нет
  226. Forced : Нет

  227. Текст #12
  228. Идентификатор : 15
  229. Формат : UTF-8
  230. Идентификатор кодека : S_TEXT/UTF8
  231. Идентификатор кодека/Информация : UTF-8 Plain Text
  232. Продолжительность : 2 ч. 23 м.
  233. Битрейт : 41 бит/сек
  234. ElementCount : 1463
  235. Размер потока : 43,1 Кбайт (0%)
  236. Заголовок : Danish
  237. Язык : Danish
  238. Default : Нет
  239. Forced : Нет

  240. Текст #13
  241. Идентификатор : 16
  242. Формат : UTF-8
  243. Идентификатор кодека : S_TEXT/UTF8
  244. Идентификатор кодека/Информация : UTF-8 Plain Text
  245. Продолжительность : 2 ч. 23 м.
  246. Битрейт : 44 бит/сек
  247. ElementCount : 1689
  248. Размер потока : 46,4 Кбайт (0%)
  249. Заголовок : European Spanish
  250. Язык : Spanish
  251. Default : Нет
  252. Forced : Нет

  253. Текст #14
  254. Идентификатор : 17
  255. Формат : UTF-8
  256. Идентификатор кодека : S_TEXT/UTF8
  257. Идентификатор кодека/Информация : UTF-8 Plain Text
  258. Продолжительность : 2 ч. 23 м.
  259. Битрейт : 45 бит/сек
  260. ElementCount : 1598
  261. Размер потока : 48,2 Кбайт (0%)
  262. Заголовок : Spanish
  263. Язык : Spanish
  264. Default : Нет
  265. Forced : Нет

  266. Текст #15
  267. Идентификатор : 18
  268. Формат : UTF-8
  269. Идентификатор кодека : S_TEXT/UTF8
  270. Идентификатор кодека/Информация : UTF-8 Plain Text
  271. Продолжительность : 2 ч. 23 м.
  272. Битрейт : 45 бит/сек
  273. ElementCount : 1593
  274. Размер потока : 47,3 Кбайт (0%)
  275. Заголовок : German
  276. Язык : German
  277. Default : Нет
  278. Forced : Нет
复制代码





游客,如果您要查看本帖隐藏内容请回复

回复

使用道具 举报

人气偶像

高清币
4
金钱
1134
鲜花
0
在线时间
199 小时
最后登录
2018-12-5
发表于 2018-10-11 23:54:40 | 显示全部楼层
每天都来中国高清论坛看看有什么电影!
回复 支持 反对

使用道具 举报

金鸡奖主角

高清币
1228
金钱
2011
鲜花
0
在线时间
143 小时
最后登录
2018-12-9
发表于 2018-10-11 23:55:59 | 显示全部楼层
我看不错噢 谢谢楼主!
回复 支持 反对

使用道具 举报

永恒神话

高清币
7714
金钱
14403
鲜花
0
在线时间
1434 小时
最后登录
2018-12-10
发表于 2018-10-11 23:56:47 | 显示全部楼层
每天都来中国高清论坛看看有什么电影!
回复 支持 反对

使用道具 举报

影坛巨星

高清币
2416
金钱
11065
鲜花
0
在线时间
1277 小时
最后登录
2018-12-10
发表于 2018-10-12 00:02:19 | 显示全部楼层
每天都来中国高清论坛看看有什么电影!
回复 支持 反对

使用道具 举报

永恒神话

高清币
7312
金钱
9193
鲜花
0
在线时间
550 小时
最后登录
2018-12-10
发表于 2018-10-12 00:04:46 | 显示全部楼层
每天都来中国高清论坛看看有什么电影!
回复 支持 反对

使用道具 举报

superstar

高清币
5965
金钱
7725
鲜花
0
在线时间
1145 小时
最后登录
2018-12-10
发表于 2018-10-12 00:06:01 | 显示全部楼层
楼主,大恩不言谢了!
回复 支持 反对

使用道具 举报

金鸡奖主角

高清币
1083
金钱
2437
鲜花
0
在线时间
304 小时
最后登录
2018-12-10
发表于 2018-10-12 00:09:56 | 显示全部楼层
我看不错噢 谢谢楼主!
回复 支持 反对

使用道具 举报

人气偶像

高清币
161
金钱
518
鲜花
0
在线时间
63 小时
最后登录
2018-11-11
发表于 2018-10-12 00:18:06 | 显示全部楼层
楼主分享的高清电影太好了!
回复 支持 反对

使用道具 举报

superstar

高清币
6334
金钱
8850
鲜花
0
在线时间
846 小时
最后登录
2018-12-10
发表于 2018-10-12 00:18:52 | 显示全部楼层
中国高清论坛很棒!
回复 支持 反对

使用道具 举报

懒得打字嘛,点击右侧快捷回复 【右侧内容,后台自定义】
您需要登录后才可以回帖 登录 | 立即注册

本版积分规则

QQ|手机版|小黑屋|中国高清论坛 ( 黔ICP备16007815号-1 )

GMT+8, 2018-12-10 09:53 , Processed in 0.106536 second(s), 30 queries .

Powered by Discuz! X3.4

© 2001-2017 Comsenz Inc.

快速回复 返回顶部 返回列表