请选择 进入手机版 | 继续访问电脑版

中国高清论坛

 找回密码
 立即注册
111
搜索
查看: 2805|回复: 1046

[动画片] 超人总动员2/超人家族2/超人特工队2(港)/超人特攻队2(台) [原生中字] Incredibles.2.2018.1080p.BluRay.x264.DTS

  [复制链接]

超级版主

高清币
876723
金钱
28614
鲜花
2
在线时间
3809 小时
最后登录
2018-11-15
发表于 2018-11-2 15:45:28 | 显示全部楼层 |阅读模式












◎译  名 超人总动员2/超人家族2/超人特工队2(港)/超人特攻队2(台)
◎片  名 Incredibles 2
◎年  代 2018
◎产  地 美国
◎类  别 喜剧 / 动作 / 动画 / 冒险
◎语  言 英语
◎上映日期 2018-06-15(美国) / 2018-06-22(中国大陆)
◎IMDb评分 8.0/10 from 105990 users
◎IMDb链接 http://www.imdb.com/title/tt3606756
◎豆瓣评分 8.0/10 from 90106 users
◎豆瓣链接 https://movie.douban.com/subject/25849049/
◎片  长 118分钟
◎导  演 布拉德·伯德 Brad Bird
◎编  剧 布拉德·伯德 Brad Bird
◎主  演 格雷格·T·尼尔森 Craig T. Nelson
      霍利·亨特 Holly Hunter
      莎拉·沃威尔 Sarah Vowell
      赫克·米尔纳 Huck Milner
      伊莱·富西尔 Eli Fucile
      凯瑟琳·基纳 Catherine Keener
      塞缪尔·杰克逊 Samuel L. Jackson
      伊莎贝拉·罗西里尼 Isabella Rossellini
      鲍勃·奥登科克 Bob Odenkirk
      布拉德·伯德 Brad Bird
      索菲亚·布什 Sophia Bush
      乔纳森·班克斯 Jonathan Banks
      约翰·拉岑贝格 John Ratzenberger
      金伯利·阿代尔·克拉克 Kimberly Adair Clark
      托亚·特纳 Toya Turner


◎标  签 动画 | 皮克斯 | 美国 | 喜剧 | 超级英雄 | 超人 | 2018 | 家庭

◎简  介  

  超人家族时隔14年强势回归!这次站在聚光灯下的是弹力女超人海伦(霍利·亨特 配音),超能先生巴鲍勃(格雷格·T·尼尔森 配音)则在家照料巴小倩和巴小飞,过起了“正常人”的居家生活。这一角色转换对于每个家庭成员来说都是艰难的,更何况他们都还没意识到宝宝巴小杰的超能力已经悄然增长。当剧中新反派开始酝酿一个狡诈危险的阴谋,超人家族必须联合酷冰侠(塞缪尔·杰克逊 配音)的力量团结对外——然而即使各自都有超能力,真正做起来却是知易行难。








  1. ID : 1
  2. Format : AVC
  3. Format/Info : Advanced Video Codec
  4. Format profile : High@L4.1
  5. Format settings : CABAC / 5 Ref Frames
  6. Format settings, CABAC : Yes
  7. Format settings, ReFrames : 5 frames
  8. Codec ID : V_MPEG4/ISO/AVC
  9. Duration : 1 h 57 min
  10. Bit rate : 5 129 kb/s
  11. Width : 1 920 pixels
  12. Height : 808 pixels
  13. Display aspect ratio : 2.40:1
  14. Frame rate mode : Constant
  15. Frame rate : 23.976 (24000/1001) FPS
  16. Color space : YUV
  17. Chroma subsampling : 4:2:0
  18. Bit depth : 8 bits
  19. Scan type : Progressive
  20. Bits/(Pixel*Frame) : 0.138
  21. Stream size : 4.22 GiB (53%)
  22. Title : Incredibles.2.2018.1080p.BluRay.x264.DTS-HD.MA.7.1-FGT
  23. Writing library : x264 core 157 r2935 545de2f
  24. Encoding settings : cabac=1 / ref=5 / deblock=1:0:0 / analyse=0x3:0x113 / me=umh / subme=8 / psy=1 / psy_rd=1.00:0.00 / mixed_ref=1 / me_range=16 / chroma_me=1 / trellis=1 / 8x8dct=1 / cqm=0 / deadzone=21,11 / fast_pskip=1 / chroma_qp_offset=-2 / threads=12 / lookahead_threads=2 / sliced_threads=0 / nr=0 / decimate=1 / interlaced=0 / bluray_compat=0 / constrained_intra=0 / bframes=3 / b_pyramid=2 / b_adapt=2 / b_bias=0 / direct=3 / weightb=1 / open_gop=0 / weightp=2 / keyint=250 / keyint_min=23 / scenecut=40 / intra_refresh=0 / rc_lookahead=50 / rc=2pass / mbtree=1 / bitrate=5129 / ratetol=1.0 / qcomp=0.60 / qpmin=0 / qpmax=69 / qpstep=4 / cplxblur=20.0 / qblur=0.5 / ip_ratio=1.40 / aq=1:1.00
  25. Language : English
  26. Default : Yes
  27. Forced : No

  28. Audio
  29. ID : 2
  30. Format : DTS XLL
  31. Format/Info : Digital Theater Systems
  32. Commercial name : DTS-HD Master Audio
  33. Codec ID : A_DTS
  34. Duration : 1 h 57 min
  35. Bit rate mode : Variable
  36. Bit rate : 4 490 kb/s
  37. Channel(s) : 8 channels
  38. Channel layout : C L R LFE Lb Rb Lss Rss
  39. Sampling rate : 48.0 kHz
  40. Frame rate : 93.750 FPS (512 SPF)
  41. Bit depth : 24 bits
  42. Compression mode : Lossless
  43. Stream size : 3.70 GiB (46%)
  44. Title : Incredibles.2.2018.1080p.BluRay.x264.DTS-HD.MA.7.1-FGT
  45. Language : English
  46. Default : Yes
  47. Forced : No

  48. Text #1
  49. ID : 3
  50. Format : UTF-8
  51. Codec ID : S_TEXT/UTF8
  52. Codec ID/Info : UTF-8 Plain Text
  53. Duration : 1 h 54 min
  54. Bit rate : 81 b/s
  55. Count of elements : 2309
  56. Stream size : 68.5 KiB (0%)
  57. Title : English-SRT
  58. Language : English
  59. Default : Yes
  60. Forced : No

  61. Text #2
  62. ID : 4
  63. Format : PGS
  64. Muxing mode : zlib
  65. Codec ID : S_HDMV/PGS
  66. Codec ID/Info : Picture based subtitle format used on BDs/HD-DVDs
  67. Duration : 1 h 56 min
  68. Bit rate : 42.7 kb/s
  69. Count of elements : 3522
  70. Stream size : 35.5 MiB (0%)
  71. Title : English-PGS
  72. Language : English
  73. Default : No
  74. Forced : No

  75. Text #3
  76. ID : 5
  77. Format : PGS
  78. Muxing mode : zlib
  79. Codec ID : S_HDMV/PGS
  80. Codec ID/Info : Picture based subtitle format used on BDs/HD-DVDs
  81. Duration : 1 h 56 min
  82. Bit rate : 41.4 kb/s
  83. Count of elements : 3484
  84. Stream size : 34.4 MiB (0%)
  85. Title : Portuguese-PGS
  86. Language : Portuguese
  87. Default : No
  88. Forced : No

  89. Text #4
  90. ID : 6
  91. Format : PGS
  92. Muxing mode : zlib
  93. Codec ID : S_HDMV/PGS
  94. Codec ID/Info : Picture based subtitle format used on BDs/HD-DVDs
  95. Duration : 1 h 56 min
  96. Bit rate : 24.7 kb/s
  97. Count of elements : 3526
  98. Stream size : 20.5 MiB (0%)
  99. Title : Chinese-PGS
  100. Language : Chinese
  101. Default : No
  102. Forced : No

  103. Text #5
  104. ID : 7
  105. Format : PGS
  106. Muxing mode : zlib
  107. Codec ID : S_HDMV/PGS
  108. Codec ID/Info : Picture based subtitle format used on BDs/HD-DVDs
  109. Duration : 1 h 56 min
  110. Bit rate : 24.0 kb/s
  111. Count of elements : 3518
  112. Stream size : 19.9 MiB (0%)
  113. Title : Korean-PGS
  114. Language : Korean
  115. Default : No
  116. Forced : No

  117. Text #6
  118. ID : 8
  119. Format : PGS
  120. Muxing mode : zlib
  121. Codec ID : S_HDMV/PGS
  122. Codec ID/Info : Picture based subtitle format used on BDs/HD-DVDs
  123. Duration : 1 h 56 min
  124. Bit rate : 34.1 kb/s
  125. Count of elements : 3542
  126. Stream size : 28.3 MiB (0%)
  127. Title : Chinese-PGS
  128. Language : Chinese
  129. Default : No
  130. Forced : No

  131. Text #7
  132. ID : 9
  133. Format : PGS
  134. Muxing mode : zlib
  135. Codec ID : S_HDMV/PGS
  136. Codec ID/Info : Picture based subtitle format used on BDs/HD-DVDs
  137. Duration : 1 h 56 min
  138. Bit rate : 25.4 kb/s
  139. Count of elements : 3526
  140. Stream size : 21.1 MiB (0%)
  141. Title : Thai-PGS
  142. Language : Thai
  143. Default : No
  144. Forced : No

  145. Text #8
  146. ID : 10
  147. Format : PGS
  148. Muxing mode : zlib
  149. Codec ID : S_HDMV/PGS
  150. Codec ID/Info : Picture based subtitle format used on BDs/HD-DVDs
  151. Duration : 1 h 56 min
  152. Bit rate : 27.9 kb/s
  153. Count of elements : 3526
  154. Stream size : 23.2 MiB (0%)
  155. Title : Chinese-PGS
  156. Language : Chinese
  157. Default : No
  158. Forced : No

  159. Text #9
  160. ID : 11
  161. Format : PGS
  162. Muxing mode : zlib
  163. Codec ID : S_HDMV/PGS
  164. Codec ID/Info : Picture based subtitle format used on BDs/HD-DVDs
  165. Duration : 1 h 56 min
  166. Bit rate : 32.3 kb/s
  167. Count of elements : 4167
  168. Stream size : 26.8 MiB (0%)
  169. Title : Chinese-PGS
  170. Language : Chinese
  171. Default : No
  172. Forced : No

  173. Menu
  174. 00:00:00.000 : en:Chapter 01
  175. 00:03:22.327 : en:Chapter 02
  176. 00:08:53.616 : en:Chapter 03
  177. 00:09:36.784 : en:Chapter 04
  178. 00:13:38.275 : en:Chapter 05
  179. 00:15:44.735 : en:Chapter 06
  180. 00:21:19.736 : en:Chapter 07
  181. 00:23:28.281 : en:Chapter 08
  182. 00:27:08.793 : en:Chapter 09
  183. 00:28:59.571 : en:Chapter 10
  184. 00:35:10.900 : en:Chapter 11
  185. 00:39:07.845 : en:Chapter 12
  186. 00:42:43.894 : en:Chapter 13
  187. 00:43:42.411 : en:Chapter 14
  188. 00:47:35.352 : en:Chapter 15
  189. 00:48:53.889 : en:Chapter 16
  190. 00:54:15.585 : en:Chapter 17
  191. 00:56:16.039 : en:Chapter 18
  192. 01:00:58.696 : en:Chapter 19
  193. 01:02:01.884 : en:Chapter 20
  194. 01:06:55.511 : en:Chapter 21
  195. 01:09:18.237 : en:Chapter 22
  196. 01:11:28.200 : en:Chapter 23
  197. 01:12:37.686 : en:Chapter 24
  198. 01:14:39.266 : en:Chapter 25
  199. 01:18:00.967 : en:Chapter 26
  200. 01:20:32.536 : en:Chapter 27
  201. 01:25:01.763 : en:Chapter 28
  202. 01:27:59.440 : en:Chapter 29
  203. 01:31:53.925 : en:Chapter 30
  204. 01:33:26.434 : en:Chapter 31
  205. 01:36:25.237 : en:Chapter 32
  206. 01:37:45.192 : en:Chapter 33
  207. 01:43:56.897 : en:Chapter 34
  208. 01:45:35.912 : en:Chapter 35
  209. 01:47:30.944 : en:Chapter 36

复制代码









下载软件:115,ut,bt彗星,百度离线,迅雷极速.(以上不会自行百度)


游客,如果您要查看本帖隐藏内容请回复




You may like the following videos














蓝光重编码电影




回复

使用道具 举报

知名艺人

高清币
72
金钱
307
鲜花
0
在线时间
52 小时
最后登录
2018-11-8
发表于 2018-11-2 15:48:11 | 显示全部楼层
dfasfd asfasdfasdfasfasdfas
回复 支持 反对

使用道具 举报

永恒神话

高清币
1126
金钱
46882
鲜花
0
在线时间
2025 小时
最后登录
2018-11-15
发表于 2018-11-2 15:48:34 | 显示全部楼层
每天都来中国高清论坛看看有什么电影!
回复 支持 反对

使用道具 举报

天王巨星

高清币
66
金钱
2748
鲜花
0
在线时间
522 小时
最后登录
2018-11-15
发表于 2018-11-2 15:54:03 | 显示全部楼层
每天都来中国高清论坛看看有什么电影!
回复 支持 反对

使用道具 举报

金鸡奖主角

高清币
1
金钱
3673
鲜花
0
在线时间
1011 小时
最后登录
2018-11-14
发表于 2018-11-2 15:55:04 | 显示全部楼层

感谢楼主分享精彩电影!
回复 支持 反对

使用道具 举报

金鸡奖主角

高清币
1
金钱
3673
鲜花
0
在线时间
1011 小时
最后登录
2018-11-14
发表于 2018-11-2 15:55:44 | 显示全部楼层

既然你诚信诚意的推荐了,那我就勉为其难的看看吧!
回复 支持 反对

使用道具 举报

金鸡奖主角

高清币
1
金钱
3673
鲜花
0
在线时间
1011 小时
最后登录
2018-11-14
发表于 2018-11-2 15:56:16 | 显示全部楼层

楼主分享的高清电影太好了!
回复 支持 反对

使用道具 举报

金鸡奖主角

高清币
1
金钱
3673
鲜花
0
在线时间
1011 小时
最后登录
2018-11-14
发表于 2018-11-2 15:56:39 | 显示全部楼层

楼主,大恩不言谢了!
回复 支持 反对

使用道具 举报

人气偶像

高清币
0
金钱
667
鲜花
0
在线时间
120 小时
最后登录
2018-11-14
发表于 2018-11-2 15:58:11 | 显示全部楼层
感谢楼 主分享精彩电影
回复 支持 反对

使用道具 举报

金鸡奖主角

高清币
123
金钱
4622
鲜花
0
在线时间
650 小时
最后登录
2018-11-11
发表于 2018-11-2 15:58:32 | 显示全部楼层

楼主分享的高清电影太好了!
回复 支持 反对

使用道具 举报

懒得打字嘛,点击右侧快捷回复 【右侧内容,后台自定义】
您需要登录后才可以回帖 登录 | 立即注册

本版积分规则

QQ|手机版|小黑屋|中国高清论坛 ( 黔ICP备16007815号-1 )

GMT+8, 2018-11-15 10:09 , Processed in 0.098275 second(s), 30 queries .

Powered by Discuz! X3.4

© 2001-2017 Comsenz Inc.

快速回复 返回顶部 返回列表