请选择 进入手机版 | 继续访问电脑版

中国高清论坛

 找回密码
 立即注册
111
搜索
查看: 213|回复: 65

[恐怖片] 守法公民 Law.Abiding.Citizen.2009.REMASTERED.1080p.BluRay.x264.DTS-SWTYBLZ 12.6G

  [复制链接]

超级版主

高清币
871488
金钱
28498
鲜花
2
在线时间
3792 小时
最后登录
2018-11-14
发表于 5 天前 | 显示全部楼层 |阅读模式








◎译  名 守法公民 / 知法玩法 / 重案对决
◎片  名 Law Abiding Citizen
◎年  代 2009
◎产  地 美国
◎类  别 剧情 / 惊悚 / 犯罪
◎语  言 英语
◎上映日期 2009-10-16
◎IMDb评分 7.4/10 from 244568 users
◎IMDb链接 http://www.imdb.com/title/tt1197624
◎豆瓣评分 7.9/10 from 69844 users
◎豆瓣链接 https://movie.douban.com/subject/3009161/
◎片  长 108 分钟
◎导  演 F. Gary Gray
◎编  剧 Kurt Wimmer
◎主  演 Jamie Foxx
      Gerard Butler
      Colm Meaney
      Bruce McGill
      Leslie Bibb
      Viola Davis
◎标  签 犯罪 | 美国 | 悬疑 | 剧情 | 美国电影 | 动作 | 2009 | 人性
◎简  介
  克莱德·谢尔顿(格莱德·巴特勒 Gerard Butler 饰)是居住在费城某小镇的一名研发人员,他有着美丽的妻子和可爱的女儿,生活幸福美满。但这一切都被突如其来的灾难所摧毁。某晚,两个暴徒闯入他的家中,妻子和女儿都受到残害。然而虽然证据确凿,但由于司法程序的迂腐和尼克·瑞斯(杰米·福克斯 Jamie Foxx 饰)助理执行官的堕落,最终让首犯克拉伦斯·多比(克里斯蒂安·斯多特 Christian Stolte 饰)因证据不足只得到10年徒刑。
本以为一切归于沉寂,但10年后当年未了的风波再起。怀着巨大仇恨的克莱德开始筹划展开报复,先是干掉了当年的从犯阿米,接着他很快找到了邪恶无耻的多比,并对其进行残酷的折磨与虐杀。克莱德的仇恨得到巨大的宣泄,但是他的复仇还未就此停止。他所针对的不只是那两个暴徒,而是整个腐朽堕落的司法系统……
















  1. Video #1
  2. ID : 1
  3. Format : HEVC
  4. Format/Info : High Efficiency Video Coding
  5. Commercial name : HDR10
  6. Format profile : Main 10@L5.1@High
  7. Codec ID : V_MPEGH/ISO/HEVC
  8. Duration : 1 h 49 min
  9. Bit rate : 64.3 Mb/s
  10. Width : 3 840 pixels
  11. Height : 2 160 pixels
  12. Display aspect ratio : 16:9
  13. Frame rate mode : Constant
  14. Frame rate : 23.976 (24000/1001) FPS
  15. Color space : YUV
  16. Chroma subsampling : 4:2:0 (Type 2)
  17. Bit depth : 10 bits
  18. Bits/(Pixel*Frame) : 0.323
  19. Stream size : 49.0 GiB (79%)
  20. Title : Law.Abiding.Citizen.2009.2160p.BluRay.REMUX.HEVC.DTS-HD.MA.TrueHD.7.1.Atmos-FGT
  21. Default : Yes
  22. Forced : No
  23. Color range : Limited
  24. Color primaries : BT.2020
  25. Transfer characteristics : PQ
  26. Matrix coefficients : BT.2020 non-constant
  27. Mastering display color primaries : Display P3
  28. Mastering display luminance : min: 0.0001 cd/m2, max: 1000 cd/m2
  29. Maximum Content Light Level : 1000 cd/m2
  30. Maximum Frame-Average Light Level : 313 cd/m2


  31. Video #2
  32. ID : 2
  33. Format : HEVC
  34. Format/Info : High Efficiency Video Coding
  35. Commercial name : HDR10
  36. Format profile : Main 10@L5.1@High
  37. Codec ID : V_MPEGH/ISO/HEVC
  38. Duration : 1 h 49 min
  39. Bit rate : 7 742 kb/s
  40. Width : 1 920 pixels
  41. Height : 1 080 pixels
  42. Display aspect ratio : 16:9
  43. Frame rate mode : Constant
  44. Frame rate : 23.976 (24000/1001) FPS
  45. Color space : YUV
  46. Chroma subsampling : 4:2:0 (Type 2)
  47. Bit depth : 10 bits
  48. Bits/(Pixel*Frame) : 0.156
  49. Stream size : 5.91 GiB (9%)
  50. Title : Law.Abiding.Citizen.2009.2160p.BluRay.REMUX.HEVC.DTS-HD.MA.TrueHD.7.1.Atmos-FGT
  51. Default : No
  52. Forced : No
  53. Color range : Limited
  54. Color primaries : BT.2020
  55. Transfer characteristics : PQ
  56. Matrix coefficients : BT.2020 non-constant
  57. Mastering display color primaries : Display P3
  58. Mastering display luminance : min: 0.0001 cd/m2, max: 1000 cd/m2

  59. Audio #1
  60. ID : 3
  61. Format : MLP FBA 16-ch
  62. Format/Info : Meridian Lossless Packing FBA with 16-channel presentation
  63. Commercial name : Dolby TrueHD with Dolby Atmos
  64. Codec ID : A_TRUEHD
  65. Duration : 1 h 49 min
  66. Bit rate mode : Variable
  67. Bit rate : 4 186 kb/s
  68. Maximum bit rate : 7 701 kb/s
  69. Channel(s) : 8 channels
  70. Channel layout : L R C LFE Ls Rs Lb Rb
  71. Sampling rate : 48.0 kHz
  72. Frame rate : 1 200.000 FPS (40 SPF)
  73. Compression mode : Lossless
  74. Stream size : 3.20 GiB (5%)
  75. Title : Law.Abiding.Citizen.2009.2160p.BluRay.REMUX.HEVC.DTS-HD.MA.TrueHD.7.1.Atmos-FGT
  76. Language : English
  77. Default : Yes
  78. Forced : No
  79. Number of dynamic objects : 15
  80. Bed channel count : 1 channel
  81. Bed channel configuration : LFE

  82. Audio #2
  83. ID : 4
  84. Format : DTS XLL
  85. Format/Info : Digital Theater Systems
  86. Commercial name : DTS-HD Master Audio
  87. Codec ID : A_DTS
  88. Duration : 1 h 49 min
  89. Bit rate mode : Variable
  90. Bit rate : 3 842 kb/s
  91. Channel(s) : 8 channels
  92. Channel layout : C L R LFE Lb Rb Lss Rss
  93. Sampling rate : 48.0 kHz
  94. Frame rate : 93.750 FPS (512 SPF)
  95. Bit depth : 24 bits
  96. Compression mode : Lossless
  97. Stream size : 2.93 GiB (5%)
  98. Title : Law.Abiding.Citizen.2009.2160p.BluRay.REMUX.HEVC.DTS-HD.MA.TrueHD.7.1.Atmos-FGT
  99. Language : English
  100. Default : No
  101. Forced : No

  102. Audio #3
  103. ID : 5
  104. Format : AC-3
  105. Format/Info : Audio Coding 3
  106. Commercial name : Dolby Digital
  107. Codec ID : A_AC3
  108. Duration : 1 h 49 min
  109. Bit rate mode : Constant
  110. Bit rate : 640 kb/s
  111. Channel(s) : 6 channels
  112. Channel layout : L R C LFE Ls Rs
  113. Sampling rate : 48.0 kHz
  114. Frame rate : 31.250 FPS (1536 SPF)
  115. Bit depth : 16 bits
  116. Compression mode : Lossy
  117. Stream size : 500 MiB (1%)
  118. Title : Law.Abiding.Citizen.2009.2160p.BluRay.REMUX.HEVC.DTS-HD.MA.TrueHD.7.1.Atmos-FGT
  119. Language : English
  120. Service kind : Complete Main
  121. Default : No
  122. Forced : No

  123. Audio #4
  124. ID : 6
  125. Format : AC-3
  126. Format/Info : Audio Coding 3
  127. Commercial name : Dolby Digital
  128. Codec ID : A_AC3
  129. Duration : 1 h 49 min
  130. Bit rate mode : Constant
  131. Bit rate : 192 kb/s
  132. Channel(s) : 2 channels
  133. Channel layout : L R
  134. Sampling rate : 48.0 kHz
  135. Frame rate : 31.250 FPS (1536 SPF)
  136. Bit depth : 16 bits
  137. Compression mode : Lossy
  138. Stream size : 150 MiB (0%)
  139. Title : Law.Abiding.Citizen.2009.2160p.BluRay.REMUX.HEVC.DTS-HD.MA.TrueHD.7.1.Atmos-FGT
  140. Language : Spanish
  141. Service kind : Complete Main
  142. Default : No
  143. Forced : No

  144. Audio #5
  145. ID : 7
  146. Format : AC-3
  147. Format/Info : Audio Coding 3
  148. Commercial name : Dolby Digital
  149. Codec ID : A_AC3
  150. Duration : 1 h 49 min
  151. Bit rate mode : Constant
  152. Bit rate : 448 kb/s
  153. Channel(s) : 6 channels
  154. Channel layout : L R C LFE Ls Rs
  155. Sampling rate : 48.0 kHz
  156. Frame rate : 31.250 FPS (1536 SPF)
  157. Bit depth : 16 bits
  158. Compression mode : Lossy
  159. Stream size : 350 MiB (1%)
  160. Title : Law.Abiding.Citizen.2009.2160p.BluRay.REMUX.HEVC.DTS-HD.MA.TrueHD.7.1.Atmos-FGT
  161. Language : French
  162. Service kind : Complete Main
  163. Default : No
  164. Forced : No

  165. Audio #6
  166. ID : 8
  167. Format : AC-3
  168. Format/Info : Audio Coding 3
  169. Commercial name : Dolby Digital
  170. Codec ID : A_AC3
  171. Duration : 1 h 49 min
  172. Bit rate mode : Constant
  173. Bit rate : 192 kb/s
  174. Channel(s) : 2 channels
  175. Channel layout : L R
  176. Sampling rate : 48.0 kHz
  177. Frame rate : 31.250 FPS (1536 SPF)
  178. Bit depth : 16 bits
  179. Compression mode : Lossy
  180. Stream size : 150 MiB (0%)
  181. Title : Law.Abiding.Citizen.2009.2160p.BluRay.REMUX.HEVC.DTS-HD.MA.TrueHD.7.1.Atmos-FGT
  182. Language : English
  183. Service kind : Complete Main
  184. Default : No
  185. Forced : No

  186. Text #1
  187. ID : 9
  188. Format : PGS
  189. Muxing mode : zlib
  190. Codec ID : S_HDMV/PGS
  191. Codec ID/Info : Picture based subtitle format used on BDs/HD-DVDs
  192. Duration : 1 h 37 min
  193. Bit rate : 39.8 kb/s
  194. Count of elements : 2574
  195. Stream size : 27.9 MiB (0%)
  196. Title : English-PGS
  197. Language : English
  198. Default : Yes
  199. Forced : No

  200. Text #2
  201. ID : 10
  202. Format : PGS
  203. Muxing mode : zlib
  204. Codec ID : S_HDMV/PGS
  205. Codec ID/Info : Picture based subtitle format used on BDs/HD-DVDs
  206. Duration : 1 h 45 min
  207. Bit rate : 40.2 kb/s
  208. Count of elements : 2826
  209. Stream size : 30.3 MiB (0%)
  210. Title : English-SDH-PGS
  211. Language : English
  212. Default : No
  213. Forced : No

  214. Text #3
  215. ID : 11
  216. Format : PGS
  217. Muxing mode : zlib
  218. Codec ID : S_HDMV/PGS
  219. Codec ID/Info : Picture based subtitle format used on BDs/HD-DVDs
  220. Duration : 1 h 47 min
  221. Bit rate : 35.2 kb/s
  222. Count of elements : 2502
  223. Stream size : 27.1 MiB (0%)
  224. Title : Spanish-PGS
  225. Language : Spanish
  226. Default : No
  227. Forced : No

  228. Menu
  229. 00:00:00.000 : :Chapter 1
  230. 00:05:58.149 : :Chapter 2
  231. 00:12:14.066 : :Chapter 3
  232. 00:18:41.870 : :Chapter 4
  233. 00:26:56.448 : :Chapter 5
  234. 00:32:38.081 : :Chapter 6
  235. 00:40:16.038 : :Chapter 7
  236. 00:44:11.649 : :Chapter 8
  237. 00:47:28.262 : :Chapter 9
  238. 00:58:09.319 : :Chapter 10
  239. 01:06:15.554 : :Chapter 11
  240. 01:11:13.185 : :Chapter 12
  241. 01:16:45.767 : :Chapter 13
  242. 01:24:12.797 : :Chapter 14
  243. 01:35:39.817 : :Chapter 15
  244. 01:40:39.700 : :Chapter 16
复制代码













下载软件:115,ut,bt彗星,百度离线,迅雷极速.(以上不会自行百度)
游客,如果您要查看本帖隐藏内容请回复




You may like the following videos














蓝光重编码电影



回复

使用道具 举报

天王巨星

高清币
0
金钱
3814
鲜花
0
在线时间
707 小时
最后登录
2018-11-14
发表于 5 天前 | 显示全部楼层
楼主分享的高清电影太好了!
回复 支持 反对

使用道具 举报

永恒神话

高清币
33792
金钱
65495
鲜花
0
在线时间
5243 小时
最后登录
2018-11-14
发表于 5 天前 | 显示全部楼层
楼主发贴辛苦了,谢谢楼主分享!我觉得中国高清论坛是注册对了!
回复 支持 反对

使用道具 举报

金鸡奖主角

高清币
193
金钱
4808
鲜花
0
在线时间
447 小时
最后登录
2018-11-14
发表于 5 天前 | 显示全部楼层
楼主发贴辛苦了,谢谢楼主分享!我觉得中国高清论坛是注册对了!
回复 支持 反对

使用道具 举报

影坛巨星

高清币
9
金钱
10367
鲜花
0
在线时间
3740 小时
最后登录
2018-11-14
发表于 5 天前 | 显示全部楼层

楼主太厉害了!楼主,电影应该很好看我觉得中国高清论坛真是个好地方!
回复 支持 反对

使用道具 举报

超级明星

高清币
88
金钱
7016
鲜花
0
在线时间
2397 小时
最后登录
2018-11-14
发表于 5 天前 | 显示全部楼层

感谢楼主的无私分享!要想中国高清论坛好 就靠你我他
回复 支持 反对

使用道具 举报

懒得打字嘛,点击右侧快捷回复 【右侧内容,后台自定义】
您需要登录后才可以回帖 登录 | 立即注册

本版积分规则

QQ|手机版|小黑屋|中国高清论坛 ( 黔ICP备16007815号-1 )

GMT+8, 2018-11-14 08:03 , Processed in 0.109798 second(s), 30 queries .

Powered by Discuz! X3.4

© 2001-2017 Comsenz Inc.

快速回复 返回顶部 返回列表