请选择 进入手机版 | 继续访问电脑版

中国高清论坛

 找回密码
 立即注册
111
搜索
查看: 662|回复: 206

[动作片] 空军一号.1997.REMASTERED.1080p.BluRay.x264.TrueHD.7.1.Atmos-SWTYBLZ 17.01GB

  [复制链接]

超级版主

高清币
876601
金钱
28612
鲜花
2
在线时间
3802 小时
最后登录
2018-11-15
发表于 6 天前 | 显示全部楼层 |阅读模式









◎译  名 空军一号 / AFO
◎片  名 Air Force One
◎年  代 1997
◎产  地 美国 / 德国
◎类  别 剧情 / 动作 / 惊悚
◎语  言 英语 / 俄语
◎上映日期 1997-07-21(加州洛杉矶世纪城首映) / 1997-07-25(美国)
◎IMDb评分 6.5/10 from 163055 users
◎IMDb链接 http://www.imdb.com/title/tt0118571
◎豆瓣评分 7.5/10 from 55056 users
◎豆瓣链接 https://movie.douban.com/subject/1293537/
◎片  长 124分钟
◎导  演 Wolfgang Petersen
◎编  剧 Andrew W. Marlowe
◎主  演 哈里森·福特 Harrison Ford
      加里·奥德曼 Gary Oldman
      格伦·克洛斯 Glenn Close
      温迪·古逊 Wendy Crewson
      利塞尔·马修斯 Liesel Matthews
      保罗·吉尔福伊尔 Paul Guilfoyle
      山德·贝克利 Xander Berkeley
      威廉姆·H·梅西 William H. Macy
      迪恩·斯托克维尔 Dean Stockwell
      汤姆·埃沃雷特 Tom Everett
      尤尔根·普洛斯诺 Jürgen Prochnow
      Donna Bullock
      Michael Ray Miller
      Carl Weintraub
      Elester Latham
      埃利亚·巴斯金 Elya Baskin
      Levan Uchaneishvili
      David Vadim
      安德鲁·迪沃夫 Andrew Divoff
      伊利亚·沃里克 Ilia Volok
      Chris Howell
      斯宾塞·加雷特 Spencer Garrett
      比尔·斯米托洛维奇 Bill Smitrovich
      菲利浦·贝克·霍尔 Philip Baker Hall
      Albert Owens
      威拉德·E·普 Willard E. Pugh
      Alan Woolf
      丹·肖尔 Dan Shor
      David Gianopoulos
      格伦·莫肖尔 Glenn Morshower
      Richard Doyle
      唐·麦克马纳斯 Don McManus
      J.A. Preston
◎标  签 动作 | 美国 | HarrisonFord | 空军一号 | 美国电影 | 经典 | 剧情 | 1997
◎简  介
  俄美两国策划一起反恐行动,派出特种部队擒获了掌握核武器的哈萨克王国独裁者伊万•雷迪克将军(Jurgen Prochnow 饰)。数周后的庆功宴上,曾为越战老兵的美国总统詹姆斯•马舍尔(哈里森•福特Harrison Ford 饰)针对恐怖分子和独裁政权发表了强硬而精彩的演说。莫斯科之旅圆满结束,总统一家及其政要乘空军一号返回美国,同行的还有艾格(加里•奥德曼 Gary Oldman 饰)带队的俄罗斯媒体工作人员。
安全人员百密一疏,艾格的真实身份是效忠于雷迪克将军的恐怖分子。飞机起飞后,艾格和同伴们劫持飞机,绑架美国政要及总统家人,只有詹姆斯侥幸逃脱。恐怖分子要求俄美释放雷迪克将军,而藏身空军一号中的詹姆斯则和这群匪徒展开殊死决斗……
◎获奖情况
  第70届奥斯卡金像奖(1998)
  最佳剪辑(提名) 理查德·弗朗西斯-布鲁斯
  最佳音响(提名) 道格·亨普希尔 / 保罗·马瑟 / 基思·A·韦斯特 / 里克·克莱恩
  第21届日本电影学院奖(1998)
  最佳外语片(提名)








  1. DISC INFO:

  2. Video
  3. ID : 1
  4. Format : AVC
  5. Format/Info : Advanced Video Codec
  6. Format profile : High@L4.1
  7. Format settings : CABAC / 5 Ref Frames
  8. Format settings, CABAC : Yes
  9. Format settings, ReFrames : 5 frames
  10. Codec ID : V_MPEG4/ISO/AVC
  11. Duration : 2 h 4 min
  12. Bit rate : 13.3 Mb/s
  13. Width : 1 920 pixels
  14. Height : 800 pixels
  15. Display aspect ratio : 2.40:1
  16. Frame rate mode : Constant
  17. Frame rate : 23.976 (24000/1001) FPS
  18. Color space : YUV
  19. Chroma subsampling : 4:2:0
  20. Bit depth : 8 bits
  21. Scan type : Progressive
  22. Bits/(Pixel*Frame) : 0.362
  23. Stream size : 11.6 GiB (68%)
  24. Title : Air.Force.One.1997.REMASTERED.1080p.BluRay.x264.TrueHD.7.1.Atmos-SWTYBLZ
  25. Writing library : x264 core 157 r2935 545de2f
  26. Encoding settings : cabac=1 / ref=5 / deblock=1:-1:-1 / analyse=0x3:0x133 / me=umh / subme=10 / psy=1 / psy_rd=1.00:0.15 / mixed_ref=1 / me_range=48 / chroma_me=1 / trellis=2 / 8x8dct=1 / cqm=0 / deadzone=21,11 / fast_pskip=1 / chroma_qp_offset=-3 / threads=25 / lookahead_threads=4 / sliced_threads=0 / nr=0 / decimate=0 / interlaced=0 / bluray_compat=0 / constrained_intra=0 / bframes=8 / b_pyramid=2 / b_adapt=2 / b_bias=0 / direct=3 / weightb=1 / open_gop=0 / weightp=2 / keyint=250 / keyint_min=23 / scenecut=40 / intra_refresh=0 / rc_lookahead=60 / rc=crf / mbtree=1 / crf=19.0 / qcomp=0.60 / qpmin=0 / qpmax=69 / qpstep=4 / ip_ratio=1.40 / aq=1:1.00
  27. Language : English
  28. Default : Yes
  29. Forced : No

  30. Audio #1
  31. ID : 2
  32. Format : MLP FBA 16-ch
  33. Format/Info : Meridian Lossless Packing FBA with 16-channel presentation
  34. Commercial name : Dolby TrueHD with Dolby Atmos
  35. Codec ID : A_TRUEHD
  36. Duration : 2 h 4 min
  37. Bit rate mode : Variable
  38. Bit rate : 5 464 kb/s
  39. Maximum bit rate : 8 559 kb/s
  40. Channel(s) : 8 channels
  41. Channel layout : L R C LFE Ls Rs Lb Rb
  42. Sampling rate : 48.0 kHz
  43. Frame rate : 1 200.000 FPS (40 SPF)
  44. Compression mode : Lossless
  45. Stream size : 4.75 GiB (28%)
  46. Title : Air.Force.One.1997.REMASTERED.1080p.BluRay.x264.TrueHD.7.1.Atmos-SWTYBLZ
  47. Language : English
  48. Default : Yes
  49. Forced : No
  50. Number of dynamic objects : 11
  51. Bed channel count : 1 channel
  52. Bed channel configuration : LFE

  53. Audio #2
  54. ID : 3
  55. Format : AC-3
  56. Format/Info : Audio Coding 3
  57. Commercial name : Dolby Digital
  58. Codec ID : A_AC3
  59. Duration : 2 h 4 min
  60. Bit rate mode : Constant
  61. Bit rate : 640 kb/s
  62. Channel(s) : 6 channels
  63. Channel layout : L R C LFE Ls Rs
  64. Sampling rate : 48.0 kHz
  65. Frame rate : 31.250 FPS (1536 SPF)
  66. Bit depth : 16 bits
  67. Compression mode : Lossy
  68. Stream size : 570 MiB (3%)
  69. Title : Air.Force.One.1997.REMASTERED.1080p.BluRay.x264.TrueHD.7.1.Atmos-SWTYBLZ
  70. Language : English
  71. Service kind : Complete Main
  72. Default : No
  73. Forced : No

  74. Text #1
  75. ID : 4
  76. Format : UTF-8
  77. Codec ID : S_TEXT/UTF8
  78. Codec ID/Info : UTF-8 Plain Text
  79. Duration : 1 h 17 min
  80. Bit rate : 2 b/s
  81. Count of elements : 54
  82. Stream size : 1.21 KiB (0%)
  83. Title : English-FORCED-SRT
  84. Language : English
  85. Default : Yes
  86. Forced : Yes

  87. Text #2
  88. ID : 5
  89. Format : UTF-8
  90. Codec ID : S_TEXT/UTF8
  91. Codec ID/Info : UTF-8 Plain Text
  92. Duration : 1 h 53 min
  93. Bit rate : 56 b/s
  94. Count of elements : 1249
  95. Stream size : 46.9 KiB (0%)
  96. Title : English-SRT
  97. Language : English
  98. Default : No
  99. Forced : No

  100. Text #3
  101. ID : 6
  102. Format : UTF-8
  103. Codec ID : S_TEXT/UTF8
  104. Codec ID/Info : UTF-8 Plain Text
  105. Duration : 1 h 53 min
  106. Bit rate : 56 b/s
  107. Count of elements : 1245
  108. Stream size : 46.8 KiB (0%)
  109. Title : English-SDH-SRT
  110. Language : English
  111. Default : No
  112. Forced : No

  113. Text #4
  114. ID : 7
  115. Format : PGS
  116. Muxing mode : zlib
  117. Codec ID : S_HDMV/PGS
  118. Codec ID/Info : Picture based subtitle format used on BDs/HD-DVDs
  119. Duration : 1 h 57 min
  120. Bit rate : 34.7 kb/s
  121. Count of elements : 2915
  122. Stream size : 29.3 MiB (0%)
  123. Title : English-PGS
  124. Language : English
  125. Default : No
  126. Forced : No

  127. Text #5
  128. ID : 8
  129. Format : PGS
  130. Muxing mode : zlib
  131. Codec ID : S_HDMV/PGS
  132. Codec ID/Info : Picture based subtitle format used on BDs/HD-DVDs
  133. Duration : 1 h 53 min
  134. Bit rate : 31.4 kb/s
  135. Count of elements : 2491
  136. Stream size : 25.5 MiB (0%)
  137. Title : English-SDH-PGS
  138. Language : English
  139. Default : No
  140. Forced : No

  141. Text #6
  142. ID : 9
  143. Format : PGS
  144. Muxing mode : zlib
  145. Codec ID : S_HDMV/PGS
  146. Codec ID/Info : Picture based subtitle format used on BDs/HD-DVDs
  147. Duration : 1 h 54 min
  148. Bit rate : 30.1 kb/s
  149. Count of elements : 2447
  150. Stream size : 24.6 MiB (0%)
  151. Title : French-PGS
  152. Language : French
  153. Default : No
  154. Forced : No

  155. Text #7
  156. ID : 10
  157. Format : PGS
  158. Muxing mode : zlib
  159. Codec ID : S_HDMV/PGS
  160. Codec ID/Info : Picture based subtitle format used on BDs/HD-DVDs
  161. Duration : 1 h 56 min
  162. Bit rate : 27.9 kb/s
  163. Count of elements : 2447
  164. Stream size : 23.2 MiB (0%)
  165. Title : Spanish-PGS
  166. Language : Spanish
  167. Default : No
  168. Forced : No

  169. Text #8
  170. ID : 11
  171. Format : PGS
  172. Muxing mode : zlib
  173. Codec ID : S_HDMV/PGS
  174. Codec ID/Info : Picture based subtitle format used on BDs/HD-DVDs
  175. Duration : 2 h 1 min
  176. Bit rate : 1 222 b/s
  177. Count of elements : 156
  178. Stream size : 1.06 MiB (0%)
  179. Title : French-PGS
  180. Language : French
  181. Default : No
  182. Forced : No

  183. Menu
  184. 00:00:00.000 : :Chapter 1
  185. 00:09:18.599 : :Chapter 2
  186. 00:15:38.145 : :Chapter 3
  187. 00:19:59.448 : :Chapter 4
  188. 00:29:07.746 : :Chapter 5
  189. 00:33:28.131 : :Chapter 6
  190. 00:39:47.718 : :Chapter 7
  191. 00:47:17.125 : :Chapter 8
  192. 00:54:42.904 : :Chapter 9
  193. 01:01:44.200 : :Chapter 10
  194. 01:08:45.037 : :Chapter 11
  195. 01:16:33.005 : :Chapter 12
  196. 01:26:26.389 : :Chapter 13
  197. 01:33:02.660 : :Chapter 14
  198. 01:41:58.821 : :Chapter 15
  199. 01:50:53.688 : :Chapter 16
  200. Notes :        Encoded from 4k bluray.     
复制代码













下载软件:115,ut,bt彗星,百度离线,迅雷极速.(以上不会自行百度)
游客,如果您要查看本帖隐藏内容请回复




You may like the following videos














蓝光重编码资源




回复

使用道具 举报

金鸡奖主角

高清币
360
金钱
4693
鲜花
0
在线时间
1166 小时
最后登录
2018-11-14
发表于 6 天前 | 显示全部楼层
楼主发贴辛苦了,谢谢楼主分享!我觉得中国高清论坛是注册对了!
回复 支持 反对

使用道具 举报

金鸡奖主角

高清币
350
金钱
4417
鲜花
0
在线时间
1025 小时
最后登录
2018-11-12
发表于 6 天前 | 显示全部楼层

我看不错噢 谢谢楼主!中国高清论坛越来越好!
回复 支持 反对

使用道具 举报

天王巨星

高清币
11
金钱
2656
鲜花
0
在线时间
304 小时
最后登录
2018-11-13
发表于 6 天前 | 显示全部楼层
thank you very much
回复 支持 反对

使用道具 举报

人气偶像

高清币
14
金钱
1140
鲜花
0
在线时间
177 小时
最后登录
2018-11-15
发表于 6 天前 | 显示全部楼层

这个帖子不回对不起自己!我想我是一天也不能离开中国高清论坛
回复 支持 反对

使用道具 举报

天王巨星

高清币
225
金钱
2558
鲜花
0
在线时间
970 小时
最后登录
2018-11-15
发表于 6 天前 | 显示全部楼层

楼主太厉害了!楼主,电影应该很好看我觉得中国高清论坛真是个好地方!
回复 支持 反对

使用道具 举报

永恒神话

高清币
11949
金钱
23303
鲜花
0
在线时间
2030 小时
最后登录
2018-11-15
发表于 6 天前 | 显示全部楼层

楼主太厉害了!楼主,电影应该很好看我觉得中国高清论坛真是个好地方!
回复 支持 反对

使用道具 举报

永恒神话

高清币
5536
金钱
12628
鲜花
0
在线时间
696 小时
最后登录
2018-11-14
发表于 6 天前 | 显示全部楼层

其实我一直觉得楼主的品味不错!呵呵!中国高清论坛太棒了!
回复 支持 反对

使用道具 举报

金鸡奖主角

高清币
159
金钱
4932
鲜花
0
在线时间
1121 小时
最后登录
2018-11-14
发表于 6 天前 | 显示全部楼层

我看不错噢 谢谢楼主!中国高清论坛越来越好!
回复 支持 反对

使用道具 举报

永恒神话

高清币
16958
金钱
26673
鲜花
0
在线时间
988 小时
最后登录
2018-11-15
发表于 6 天前 | 显示全部楼层

感谢楼主的无私分享!要想中国高清论坛好 就靠你我他
回复 支持 反对

使用道具 举报

懒得打字嘛,点击右侧快捷回复 【右侧内容,后台自定义】
您需要登录后才可以回帖 登录 | 立即注册

本版积分规则

QQ|手机版|小黑屋|中国高清论坛 ( 黔ICP备16007815号-1 )

GMT+8, 2018-11-15 09:49 , Processed in 0.751529 second(s), 30 queries .

Powered by Discuz! X3.4

© 2001-2017 Comsenz Inc.

快速回复 返回顶部 返回列表