请选择 进入手机版 | 继续访问电脑版

中国高清论坛

 找回密码
 立即注册
111
搜索
查看: 309|回复: 68

[剧情片] 伤口Inxeba.AKA.The.Wound.2017.SUBBED.1080p.AMZN.WEBRip.DDP5.1.x264-Cinefeel 3.9G

  [复制链接]

超级版主

高清币
871616
金钱
28498
鲜花
2
在线时间
3795 小时
最后登录
2018-11-14
发表于 5 天前 | 显示全部楼层 |阅读模式









◎译  名 伤口 / The Wound / 割爱(港 / 台)
◎片  名 Inxeba
◎年  代 2017
◎产  地 南非 / 德国 / 荷兰 / 法国
◎类  别 剧情 / 爱情 / 同性
◎语  言 科萨语 / 南非语 / 英语
◎上映日期 2017-01-22(圣丹斯电影节) / 2017-02-09(柏林电影节) / 2017-09-15(南非)
◎IMDb评分 6.7/10 from 1137 users
◎IMDb链接 http://www.imdb.com/title/tt6333070
◎豆瓣评分 6.9/10 from 796 users
◎豆瓣链接 https://movie.douban.com/subject/26949364/
◎片  长 88分钟
◎导  演 约翰·特伦戈夫 John Trengove
◎编  剧 约翰·特伦戈夫 John Trengove / 杉多·姆科罗扎纳 Thando Mgqolozana / 马鲁斯·本古 Malusi Bengu
◎主  演 纳肯·图雷 Nakhane Touré
      邦基尔·曼赛 Bongile Mantsai
      尼扎·杰 Niza Jay
      索巴尼·姆瑟勒尼 Thobani Mseleni
◎标  签 南非 | 同性 | 2017 | 非洲 | 剧情 | LGBT | 同志 | 爱情
◎简  介
  南非科萨族的割礼仪式,是每名男孩成为男人前的人生大事。由割包皮到等待伤口复原,部族内的男子经历了一场雄性的成人礼。寂寞工人科拉尼,每两年都出任成人礼的监护人,见证青少年成人。他跟一同担任监护人的好友,两年一会,趁机私会。偏偏,今年来了一名反叛青年,他不只大胆挑战割礼的合理性,更勇闯禁忌,挑战南非性别传统,一场禁忌下的爱情故事,将要发生。
◎获奖情况
  第67届柏林国际电影节(2017)
  泰迪熊奖 最佳电影(提名) 约翰·特伦戈夫







  1. [code]Video
  2. ID : 1
  3. Format : AVC
  4. Format/Info : Advanced Video Codec
  5. Format profile : High@L4
  6. Format settings : CABAC / 4 Ref Frames
  7. Format settings, CABAC : Yes
  8. Format settings, ReFrames : 4 frames
  9. Codec ID : V_MPEG4/ISO/AVC
  10. Duration : 1 h 28 min
  11. Bit rate mode : Variable
  12. Bit rate : 5 732 kb/s
  13. Maximum bit rate : 15.0 Mb/s
  14. Width : 1 920 pixels
  15. Height : 1 080 pixels
  16. Display aspect ratio : 16:9
  17. Frame rate mode : Constant
  18. Frame rate : 24.000 FPS
  19. Color space : YUV
  20. Chroma subsampling : 4:2:0
  21. Bit depth : 8 bits
  22. Scan type : Progressive
  23. Bits/(Pixel*Frame) : 0.115
  24. Stream size : 3.54 GiB (90%)
  25. Default : Yes
  26. Forced : No
  27. Color range : Limited
  28. Color primaries : BT.709
  29. Transfer characteristics : BT.709
  30. Matrix coefficients : BT.709

  31. Audio
  32. ID : 2
  33. Format : E-AC-3
  34. Format/Info : Enhanced AC-3
  35. Commercial name : Dolby Digital Plus
  36. Codec ID : A_EAC3
  37. Duration : 1 h 28 min
  38. Bit rate mode : Constant
  39. Bit rate : 640 kb/s
  40. Channel(s) : 6 channels
  41. Channel layout : L R C LFE Ls Rs
  42. Sampling rate : 48.0 kHz
  43. Frame rate : 31.250 FPS (1536 SPF)
  44. Compression mode : Lossy
  45. Stream size : 404 MiB (10%)
  46. Language : Chinese
  47. Service kind : Complete Main
  48. Default : Yes
  49. Forced : No
复制代码


[/code]









下载软件:115,ut,bt彗星,百度离线,迅雷极速.(以上不会自行百度)


游客,如果您要查看本帖隐藏内容请回复




You may like the following videos














数字高清电影




回复

使用道具 举报

天王巨星

高清币
436
金钱
1644
鲜花
0
在线时间
156 小时
最后登录
2018-11-13
发表于 5 天前 | 显示全部楼层
谢谢楼主分享
回复 支持 反对

使用道具 举报

人气偶像

高清币
7
金钱
1127
鲜花
0
在线时间
175 小时
最后登录
2018-11-13
发表于 5 天前 | 显示全部楼层
楼主发贴辛苦了,谢谢楼主分享!我觉得中国高清论坛是注册对了!
回复 支持 反对

使用道具 举报

永恒神话

高清币
11929
金钱
23265
鲜花
0
在线时间
2026 小时
最后登录
2018-11-13
发表于 5 天前 | 显示全部楼层

楼主太厉害了!楼主,电影应该很好看我觉得中国高清论坛真是个好地方!
回复 支持 反对

使用道具 举报

永恒神话

高清币
5516
金钱
12603
鲜花
0
在线时间
695 小时
最后登录
2018-11-13
发表于 5 天前 | 显示全部楼层

既然你诚信诚意的推荐了,那我就勉为其难的看看吧!中国高清论坛不走平凡路。
回复 支持 反对

使用道具 举报

永恒神话

高清币
6871
金钱
24154
鲜花
0
在线时间
1496 小时
最后登录
2018-11-14
发表于 5 天前 | 显示全部楼层
感谢分享精彩好电影!!!
回复 支持 反对

使用道具 举报

永恒神话

高清币
2405
金钱
14494
鲜花
0
在线时间
2308 小时
最后登录
2018-11-14
发表于 5 天前 | 显示全部楼层

其实我一直觉得楼主的品味不错!呵呵!中国高清论坛太棒了!
回复 支持 反对

使用道具 举报

永恒神话

高清币
7205
金钱
13601
鲜花
0
在线时间
1381 小时
最后登录
2018-11-14
发表于 5 天前 | 显示全部楼层
楼主发贴辛苦了,谢谢楼主分享!我觉得中国高清论坛是注册对了!
回复 支持 反对

使用道具 举报

永恒神话

高清币
16948
金钱
26652
鲜花
0
在线时间
986 小时
最后登录
2018-11-14
发表于 5 天前 | 显示全部楼层

感谢楼主的无私分享!要想中国高清论坛好 就靠你我他
回复 支持 反对

使用道具 举报

影坛巨星

高清币
3644
金钱
8130
鲜花
0
在线时间
757 小时
最后登录
2018-11-12
发表于 5 天前 | 显示全部楼层

这个帖子不回对不起自己!我想我是一天也不能离开中国高清论坛
回复 支持 反对

使用道具 举报

懒得打字嘛,点击右侧快捷回复 【右侧内容,后台自定义】
您需要登录后才可以回帖 登录 | 立即注册

本版积分规则

QQ|手机版|小黑屋|中国高清论坛 ( 黔ICP备16007815号-1 )

GMT+8, 2018-11-14 08:58 , Processed in 0.091497 second(s), 30 queries .

Powered by Discuz! X3.4

© 2001-2017 Comsenz Inc.

快速回复 返回顶部 返回列表