请选择 进入手机版 | 继续访问电脑版

中国高清论坛

 找回密码
 立即注册
111
搜索
查看: 403|回复: 97

[动画片] 大世界Have.a.Nice.Day.2017.CHINESE.1080p.AMZN.WEBRip.DDP5.1.x264-Cinefeel 1.2GB

  [复制链接]

超级版主

高清币
871715
金钱
28504
鲜花
2
在线时间
3795 小时
最后登录
2018-11-14
发表于 5 天前 | 显示全部楼层 |阅读模式








◎译  名 Have a Nice Day / 好极了
◎片  名 大世界
◎年  代 2017
◎产  地 中国大陆
◎类  别 动画
◎语  言 汉语普通话
◎上映日期 2017-02-17(柏林电影节) / 2018-01-12(中国大陆)
◎IMDb评分 6.5/10 from 1116 users
◎IMDb链接 http://www.imdb.com/title/tt6451304
◎豆瓣评分 7.0/10 from 32809 users
◎豆瓣链接 https://movie.douban.com/subject/26954003/
◎片  长 77分钟
◎导  演 刘健 Jian Liu
◎编  剧 刘健 Jian Liu
◎主  演 朱昌龙 Changlong Zhu
      曹寇 Kou Cao
      杨思明 Siming Yang
      马晓峰 Xiaofeng Ma
      曹恺 Kai Cao
      刘健 Jian Liu
      薛峰 Feng Xue
      朱虹 Hong Zhu
      王达 Da Wang
      施海涛 Haitao Shi
      郑懿 Yi Zheng
◎标  签 动画 | 黑色幽默 | 中国大陆 | 犯罪 | 人性 | 2017 | 柏林电影节 | 剧情
◎简  介
  南方小城,大雨将至。工地司机小张为了挽救和女友的爱情,抢劫了老板的巨款,引发连锁反应。几股势力纷纷对小张展开追逐。原本没有关系的他们,命运产生了交集。在一番阴差阳错、啼笑皆非的交手之后,他们迎来了意想不到的结局,命运和他们开了一个大大的玩笑。历时三年,导演刘健一人身兼多职,用独特的画风描绘了在一个发生在一天之内的黑色幽默故事,呈现出一幅独特的时代风景画和社会众生相。
◎获奖情况
  第67届柏林国际电影节(2017)
  金熊奖 最佳影片(提名) 刘健
  第54届台北金马影展(2017)
  金马奖 最佳原著剧本(提名) 刘健
  金马奖 最佳原创歌曲(提名) 刘健
  金马奖 最佳动画长片 刘健
  第1届平遥国际电影展(2017)
  费穆荣誉最佳导演 刘健
  第4届豆瓣电影年度榜单(2017)
  年度华语独立佳作(提名)






  1. Video
  2. ID : 1
  3. Format : AVC
  4. Format/Info : Advanced Video Codec
  5. Format profile : High@L4
  6. Format settings : CABAC / 4 Ref Frames
  7. Format settings, CABAC : Yes
  8. Format settings, ReFrames : 4 frames
  9. Codec ID : V_MPEG4/ISO/AVC
  10. Duration : 1 h 14 min
  11. Bit rate : 1 678 kb/s
  12. Width : 1 920 pixels
  13. Height : 1 080 pixels
  14. Display aspect ratio : 16:9
  15. Frame rate mode : Constant
  16. Frame rate : 25.000 FPS
  17. Color space : YUV
  18. Chroma subsampling : 4:2:0
  19. Bit depth : 8 bits
  20. Scan type : Progressive
  21. Bits/(Pixel*Frame) : 0.032
  22. Stream size : 895 MiB (72%)
  23. Default : Yes
  24. Forced : No
  25. Color range : Limited
  26. Color primaries : BT.709
  27. Transfer characteristics : BT.709
  28. Matrix coefficients : BT.709

  29. Audio
  30. ID : 2
  31. Format : E-AC-3
  32. Format/Info : Enhanced AC-3
  33. Commercial name : Dolby Digital Plus
  34. Codec ID : A_EAC3
  35. Duration : 1 h 14 min
  36. Bit rate mode : Constant
  37. Bit rate : 640 kb/s
  38. Channel(s) : 6 channels
  39. Channel layout : L R C LFE Ls Rs
  40. Sampling rate : 48.0 kHz
  41. Frame rate : 31.250 FPS (1536 SPF)
  42. Compression mode : Lossy
  43. Stream size : 341 MiB (28%)
  44. Language : Chinese
  45. Service kind : Complete Main
  46. Default : Yes
  47. Forced : No

  48. Text
  49. ID : 3
  50. Format : UTF-8
  51. Codec ID : S_TEXT/UTF8
  52. Codec ID/Info : UTF-8 Plain Text
  53. Duration : 1 h 12 min
  54. Bit rate : 38 b/s
  55. Count of elements : 597
  56. Stream size : 20.4 KiB (0%)
  57. Language : English
  58. Default : No
  59. Forced : No

复制代码









下载软件:115,ut,bt彗星,百度离线,迅雷极速.(以上不会自行百度)


游客,如果您要查看本帖隐藏内容请回复



You may like the following videos














数字高清电影







回复

使用道具 举报

超级明星

高清币
970
金钱
6498
鲜花
0
在线时间
1331 小时
最后登录
2018-11-12
发表于 5 天前 | 显示全部楼层
楼主发贴辛苦了,谢谢楼主分享!我觉得中国高清论坛是注册对了!
回复 支持 反对

使用道具 举报

好莱坞明星

高清币
1158
金钱
4909
鲜花
0
在线时间
507 小时
最后登录
2018-11-14
发表于 5 天前 | 显示全部楼层
楼主发贴辛苦了,谢谢楼主分享!我觉得中国高清论坛是注册对了!
回复 支持 反对

使用道具 举报

人气偶像

高清币
9
金钱
888
鲜花
0
在线时间
272 小时
最后登录
2018-11-13
发表于 5 天前 | 显示全部楼层
大世界Have.a.Nice.Day.2017.CHINESE.1080p.AMZN.WEBRip.DDP5.1.x264-Cinefeel 1.2GB
回复 支持 反对

使用道具 举报

人气偶像

高清币
1
金钱
1755
鲜花
0
在线时间
273 小时
最后登录
2018-11-12
发表于 5 天前 | 显示全部楼层

其实我一直觉得楼主的品味不错!呵呵!中国高清论坛太棒了!
回复 支持 反对

使用道具 举报

人气偶像

高清币
7
金钱
1127
鲜花
0
在线时间
175 小时
最后登录
2018-11-13
发表于 5 天前 | 显示全部楼层
楼主发贴辛苦了,谢谢楼主分享!我觉得中国高清论坛是注册对了!
回复 支持 反对

使用道具 举报

天王巨星

高清币
131
金钱
2213
鲜花
0
在线时间
286 小时
最后登录
2018-11-13
发表于 5 天前 | 显示全部楼层
楼主发贴辛苦了,谢谢楼主分享!
回复 支持 反对

使用道具 举报

永恒神话

高清币
11929
金钱
23265
鲜花
0
在线时间
2026 小时
最后登录
2018-11-13
发表于 5 天前 | 显示全部楼层

这个帖子不回对不起自己!我想我是一天也不能离开中国高清论坛
回复 支持 反对

使用道具 举报

永恒神话

高清币
7206
金钱
13602
鲜花
0
在线时间
1381 小时
最后登录
2018-11-14
发表于 5 天前 | 显示全部楼层
楼主发贴辛苦了,谢谢楼主分享!我觉得中国高清论坛是注册对了!
回复 支持 反对

使用道具 举报

永恒神话

高清币
5516
金钱
12603
鲜花
0
在线时间
695 小时
最后登录
2018-11-13
发表于 5 天前 | 显示全部楼层

我看不错噢 谢谢楼主!中国高清论坛越来越好!
回复 支持 反对

使用道具 举报

懒得打字嘛,点击右侧快捷回复 【右侧内容,后台自定义】
您需要登录后才可以回帖 登录 | 立即注册

本版积分规则

QQ|手机版|小黑屋|中国高清论坛 ( 黔ICP备16007815号-1 )

GMT+8, 2018-11-14 09:28 , Processed in 0.123596 second(s), 30 queries .

Powered by Discuz! X3.4

© 2001-2017 Comsenz Inc.

快速回复 返回顶部 返回列表