请选择 进入手机版 | 继续访问电脑版

中国高清论坛

 找回密码
 立即注册
111
搜索
查看: 358|回复: 84

[剧情片] 克里斯托弗·罗宾 Christopher.Robin.2018.BDRip.1080p.selezen 10.81 GiB

  [复制链接]

区域版主

高清币
13374
金钱
31559
鲜花
-88
在线时间
10340 小时
最后登录
2018-11-14
发表于 5 天前 | 显示全部楼层 |阅读模式


◎译  名 克里斯托弗·罗宾/小熊维尼真人版/小熊维尼/维尼与我(港)/挚友·维尼(台)  
◎片  名 Christopher Robin
◎年  代 2018
◎国  家 美国
◎类  别 动画/冒险/喜剧/剧情
◎语  言 英语...
◎IMDb评分 7.7/10 from 20233 users
◎IMDB链接 https://www.imdb.com/title/tt4575576/
◎片  长 1 h 43 min
◎导  演 马克·福斯特 Marc Forster
◎主  演 海莉·阿特维尔 Hayley Atwell
       伊万·麦克格雷格 Ewan McGregor
       克里斯·奥多德 Chris O'Dowd
       托比·琼斯 Toby Jones



◎简  介 


  曾在百亩森林中与这群生机勃勃、惹人怜爱的小动物们嬉闹玩耍的小男孩已经长大成人。如今,眼看他逐渐迷失了人生方向,这群动物伙伴们决心走进人类世界,帮助克里斯托弗·罗宾记起内心深处那个友善活泼的自己。
  1. General
  2. Unique ID : 165161782786278492421288254428393030224 (0x7C410097A08FF1FD916950D0E240C250)
  3. Complete name : D:Video111Christopher.Robin.2018.BDRip.1080p.selezen.mkv
  4. Format : Matroska
  5. Format version : Version 4
  6. File size : 10.8 GiB
  7. Duration : 1 h 43 min
  8. Overall bit rate : 14.9 Mb/s
  9. Movie name : Christopher Robin 2018 from селезень
  10. Encoded date : UTC 2018-11-08 19:25:59
  11. Writing application : mkvmerge v28.2.0 ('The Awakening') 64-bit
  12. Writing library : libebml v1.3.6 + libmatroska v1.4.9

  13. Video
  14. ID : 1
  15. Format : AVC
  16. Format/Info : Advanced Video Codec
  17. Format profile : High@L4.1
  18. Format settings : CABAC / 5 Ref Frames
  19. Format settings, CABAC : Yes
  20. Format settings, ReFrames : 5 frames
  21. Codec ID : V_MPEG4/ISO/AVC
  22. Duration : 1 h 43 min
  23. Bit rate : 13.0 Mb/s
  24. Width : 1 920 pixels
  25. Height : 804 pixels
  26. Display aspect ratio : 2.40:1
  27. Frame rate mode : Constant
  28. Frame rate : 23.976 (24000/1001) FPS
  29. Color space : YUV
  30. Chroma subsampling : 4:2:0
  31. Bit depth : 8 bits
  32. Scan type : Progressive
  33. Bits/(Pixel*Frame) : 0.351
  34. Stream size : 9.43 GiB (87%)
  35. Title : selezen
  36. Writing library : x264 core 148 r2705kMod 3f5ed56
  37. Encoding settings : cabac=1 / ref=5 / deblock=1:-2:-2 / analyse=0x3:0x133 / me=umh / subme=11 / psy=1 / fade_compensate=0.00 / psy_rd=1.05:0.04 / mixed_ref=1 / me_range=48 / chroma_me=1 / trellis=2 / 8x8dct=1 / cqm=0 / deadzone=21,11 / fast_pskip=0 / chroma_qp_offset=-3 / threads=12 / lookahead_threads=2 / sliced_threads=0 / nr=0 / decimate=0 / interlaced=0 / bluray_compat=0 / constrained_intra=0 / fgo=0 / bframes=8 / b_pyramid=2 / b_adapt=2 / b_bias=0 / direct=3 / weightb=1 / open_gop=0 / weightp=2 / keyint=240 / keyint_min=23 / scenecut=40 / intra_refresh=0 / rc_lookahead=50 / rc=2pass / mbtree=0 / bitrate=13000 / ratetol=1.0 / qcomp=0.60 / qpmin=0 / qpmax=51 / qpstep=4 / cplxblur=20.0 / qblur=0.5 / vbv_maxrate=50000 / vbv_bufsize=62500 / nal_hrd=none / filler=0 / ip_ratio=1.40 / pb_ratio=1.30 / aq=3:0.80
  38. Language : English
  39. Default : Yes
  40. Forced : No

  41. Audio #1
  42. ID : 2
  43. Format : AC-3
  44. Format/Info : Audio Coding 3
  45. Commercial name : Dolby Digital
  46. Codec ID : A_AC3
  47. Duration : 1 h 43 min
  48. Bit rate mode : Constant
  49. Bit rate : 384 kb/s
  50. Channel(s) : 6 channels
  51. Channel layout : L R C LFE Ls Rs
  52. Sampling rate : 48.0 kHz
  53. Frame rate : 31.250 FPS (1536 SPF)
  54. Bit depth : 16 bits
  55. Compression mode : Lossy
  56. Stream size : 285 MiB (3%)
  57. Title : iTunes
  58. Language : Russian
  59. Service kind : Complete Main
  60. Default : Yes
  61. Forced : Yes

  62. Audio #2
  63. ID : 3
  64. Format : DTS
  65. Format/Info : Digital Theater Systems
  66. Codec ID : A_DTS
  67. Duration : 1 h 43 min
  68. Bit rate mode : Constant
  69. Bit rate : 1 509 kb/s
  70. Channel(s) : 6 channels
  71. Channel layout : C L R Ls Rs LFE
  72. Sampling rate : 48.0 kHz
  73. Frame rate : 93.750 FPS (512 SPF)
  74. Bit depth : 24 bits
  75. Compression mode : Lossy
  76. Stream size : 1.10 GiB (10%)
  77. Title : Original
  78. Language : English
  79. Default : No
  80. Forced : No

  81. Text #1
  82. ID : 4
  83. Format : UTF-8
  84. Codec ID : S_TEXT/UTF8
  85. Codec ID/Info : UTF-8 Plain Text
  86. Duration : 50 min 28 s
  87. Bit rate : 0 b/s
  88. Count of elements : 2
  89. Stream size : 48.0 Bytes (0%)
  90. Title : Forced
  91. Language : Russian
  92. Default : Yes
  93. Forced : Yes

  94. Text #2
  95. ID : 5
  96. Format : UTF-8
  97. Codec ID : S_TEXT/UTF8
  98. Codec ID/Info : UTF-8 Plain Text
  99. Duration : 1 h 40 min
  100. Bit rate : 107 b/s
  101. Count of elements : 1696
  102. Stream size : 79.2 KiB (0%)
  103. Title : Full
  104. Language : Russian
  105. Default : No
  106. Forced : No

  107. Text #3
  108. ID : 6
  109. Format : UTF-8
  110. Codec ID : S_TEXT/UTF8
  111. Codec ID/Info : UTF-8 Plain Text
  112. Duration : 1 h 40 min
  113. Bit rate : 116 b/s
  114. Count of elements : 2057
  115. Stream size : 86.1 KiB (0%)
  116. Title : SDH
  117. Language : Russian
  118. Default : No
  119. Forced : No

  120. Text #4
  121. ID : 7
  122. Format : UTF-8
  123. Codec ID : S_TEXT/UTF8
  124. Codec ID/Info : UTF-8 Plain Text
  125. Duration : 1 h 39 min
  126. Bit rate : 69 b/s
  127. Count of elements : 1891
  128. Stream size : 50.4 KiB (0%)
  129. Title : Full
  130. Language : English
  131. Default : No
  132. Forced : No

  133. Text #5
  134. ID : 8
  135. Format : UTF-8
  136. Codec ID : S_TEXT/UTF8
  137. Codec ID/Info : UTF-8 Plain Text
  138. Duration : 1 h 40 min
  139. Bit rate : 105 b/s
  140. Count of elements : 2071
  141. Stream size : 77.1 KiB (0%)
  142. Title : SDH
  143. Language : English
  144. Default : No
  145. Forced : No

  146. Menu
  147. 00:00:00.000 : :00:00:00.000
  148. 00:01:43.729 : :00:01:43.729
  149. 00:07:36.289 : :00:07:36.289
  150. 00:12:32.919 : :00:12:32.919
  151. 00:23:47.843 : :00:23:47.843
  152. 00:32:18.186 : :00:32:18.186
  153. 00:44:35.673 : :00:44:35.673
  154. 00:54:39.526 : :00:54:39.526
  155. 00:59:13.800 : :00:59:13.800
  156. 01:08:01.703 : :01:08:01.703
  157. 01:18:46.180 : :01:18:46.180
  158. 01:29:59.769 : :01:29:59.769
  159. 01:36:04.467 : :01:36:04.467
  160. 01:38:32.031 : :01:38:32.031
复制代码


游客,如果您要查看本帖隐藏内容请回复

回复

使用道具 举报

人气偶像

高清币
7
金钱
1127
鲜花
0
在线时间
175 小时
最后登录
2018-11-13
发表于 5 天前 | 显示全部楼层

楼主太厉害了!楼主,电影应该很好看我觉得中国高清论坛真是个好地方!
回复 支持 反对

使用道具 举报

永恒神话

高清币
11929
金钱
23265
鲜花
0
在线时间
2026 小时
最后登录
2018-11-13
发表于 5 天前 | 显示全部楼层

这个帖子不回对不起自己!我想我是一天也不能离开中国高清论坛
回复 支持 反对

使用道具 举报

永恒神话

高清币
7196
金钱
13588
鲜花
0
在线时间
1378 小时
最后登录
2018-11-13
发表于 5 天前 | 显示全部楼层

楼主太厉害了!楼主,电影应该很好看我觉得中国高清论坛真是个好地方!
回复 支持 反对

使用道具 举报

永恒神话

高清币
5516
金钱
12603
鲜花
0
在线时间
695 小时
最后登录
2018-11-13
发表于 5 天前 | 显示全部楼层

这东西我收了!谢谢楼主!中国高清论坛真好!
回复 支持 反对

使用道具 举报

永恒神话

高清币
2405
金钱
14494
鲜花
0
在线时间
2308 小时
最后登录
2018-11-14
发表于 5 天前 | 显示全部楼层

感谢楼主的无私分享!要想中国高清论坛好 就靠你我他
回复 支持 反对

使用道具 举报

永恒神话

高清币
6870
金钱
24146
鲜花
0
在线时间
1494 小时
最后登录
2018-11-13
发表于 5 天前 | 显示全部楼层
感谢分享精彩好电影!!!
回复 支持 反对

使用道具 举报

影坛巨星

高清币
3644
金钱
8130
鲜花
0
在线时间
757 小时
最后登录
2018-11-12
发表于 5 天前 | 显示全部楼层

这东西我收了!谢谢楼主!中国高清论坛真好!
回复 支持 反对

使用道具 举报

天王巨星

高清币
150
金钱
2255
鲜花
0
在线时间
229 小时
最后登录
2018-11-9
发表于 5 天前 | 显示全部楼层

楼主,大恩不言谢了!中国高清论坛是最棒的!
回复 支持 反对

使用道具 举报

人气偶像

高清币
37
金钱
1611
鲜花
0
在线时间
277 小时
最后登录
2018-11-13
发表于 5 天前 | 显示全部楼层
楼主太厉害了!楼主,电影应该很好看我觉得中国高清论坛真是个好地方!
回复 支持 反对

使用道具 举报

懒得打字嘛,点击右侧快捷回复 【右侧内容,后台自定义】
您需要登录后才可以回帖 登录 | 立即注册

本版积分规则

QQ|手机版|小黑屋|中国高清论坛 ( 黔ICP备16007815号-1 )

GMT+8, 2018-11-14 08:03 , Processed in 0.085939 second(s), 29 queries .

Powered by Discuz! X3.4

© 2001-2017 Comsenz Inc.

快速回复 返回顶部 返回列表