请选择 进入手机版 | 继续访问电脑版

中国高清论坛

 找回密码
 立即注册
111
搜索
查看: 585|回复: 157

[动画片] 无敌破坏王[中字] 2012.1080p.BluRay.x264.TrueHD.7.1.Atmos-SWTYBLZ 12.71GB

  [复制链接]

超级版主

高清币
871538
金钱
28498
鲜花
2
在线时间
3792 小时
最后登录
2018-11-14
发表于 5 天前 | 显示全部楼层 |阅读模式










◎译  名 无敌破坏王 / 破坏王大冒险 / 破坏王拉尔夫
◎片  名 Wreck-It Ralph
◎年  代 2012
◎产  地 美国
◎类  别 喜剧 / 动画 / 奇幻 / 冒险
◎语  言 英语
◎上映日期 2012-11-02(美国) / 2012-11-06(中国大陆)
◎IMDb评分 7.7/10 from 319758 users
◎IMDb链接 http://www.imdb.com/title/tt1772341
◎豆瓣评分 8.7/10 from 215584 users
◎豆瓣链接 https://movie.douban.com/subject/6534248/
◎片  长 101分钟
◎导  演 瑞奇·莫尔 Rich Moore
◎编  剧 菲尔·约翰斯顿 Phil Johnston / 珍妮弗·李 Jennifer Lee / 瑞奇·摩尔 Rich Moore / 吉姆·里尔顿 Jim Reardon / 约翰·C·赖利 John C. Reilly / 山姆·J·莱文 Sam J. Levine / 贾里德·斯特恩 Jared Stern
◎主  演 约翰·C·赖利 John C. Reilly
      萨拉·西尔弗曼 Sarah Silverman
      杰克·麦克布瑞尔 Jack McBrayer
      简·林奇 Jane Lynch
      艾伦·图代克 Alan Tudyk
      敏迪·卡灵 Mindy Kaling
      乔·洛·特鲁格里奥 Joe Lo Truglio
      艾德·奥尼尔 Ed O'Neill
      丹尼斯·海斯伯特 Dennis Haysbert
      伊迪·迈克莱尔 Edie McClurg
      雷蒙德·S·佩尔西 Raymond S. Persi
      杰斯·哈梅尔 Jess Harnell
      瑞秋·哈里斯 Rachael Harris
      斯盖拉·阿斯丁 Skylar Astin
      亚当·卡罗拉 Adam Carolla
      霍拉提奥·桑斯 Horatio Sanz
      莫里斯·拉马奇 Maurice LaMarche
      斯戴芬妮·斯考特 Stefanie Scott
      约翰·迪·玛吉欧 John Di Maggio
      瑞奇·摩尔 Rich Moore
      凯蒂·洛斯 Katie Lowes
      贾米·埃曼 Jamie Elman
      乔西·特立尼达 Josie Trinidad
      辛贝·沃克 Cymbre Walk
      塔克·吉莫尔 Tucker Gilmore
      布兰登·斯考特 Brandon Scott
      蒂姆·梅尔滕斯 Tim Mertens
      凯文·迪特斯 Kevin Deters
      杰洛·里佛斯 Gerald C. Rivers
      马丁·贾维斯 Martin Jarvis
      布莱恩·克辛格 Brian Kesinger
      罗杰·克莱格·史密斯 Roger Craig Smith
      菲尔·约翰斯顿 Phil Johnston
      鲁本·兰登 Reuben Langdon
      凯尔·赫伯特 Kyle Hebert
      洁米·斯贝勒·罗伯茨 Jamie Sparer Roberts
      尼克·格里姆肖 Nick Grimshaw
◎标  签 动画 | 迪斯尼 | 美国 | 喜剧 | 游戏 | 搞笑 | 2012 | 冒险
◎简  介
  无敌破坏王(约翰·C·赖利 John C. Reilly 配音)生活在一个80年代出品的低精度游戏中。他的设定身份是一个反派,每天的生活就是在游戏《快手阿修》中大搞破坏,其后由玩家操作的英雄人物快手阿修(杰克·麦克布瑞尔 Jack McBrayer 配音) 会及时赶到进行修补,赢得奖牌,包揽一切荣耀。身为反派,破坏王厌倦了自己的生活,眼看阿修被胜利者的光环围绕,自己却日复一日在无趣中过活,他终于决定改变。单纯的他以为只要自己也能得到一枚奖牌,就可以摆脱反派的身份,于是某日在游戏厅歇业后,破坏王偷偷离开了自己的游戏,前去闯荡其他电子游戏的世界。
在途中,破坏王结识了来自《英雄使命》的冷酷队长(简·林奇 Jane Lynch 配音)和来自90年代糖果赛车游戏《甜蜜冲刺》的小女孩云妮(萨拉·丝沃曼 Sarah Silverman 配音)。后者梦想着能上场比赛,但其身份也不允许她梦想成真。破坏王所属的游戏《快手阿修》由于失去了他被认定为系统错误,如不尽快返回,则游戏就会被永久删除;而《甜蜜冲刺》的游戏世界则在悄悄酝酿着一场巨大的、威胁到整个游戏世界的阴谋。这也许是无敌破坏王实现梦想的机会,但也可能是一条不归路…… 他可以扭转乾坤,成为一名真正的英雄吗?
◎获奖情况
  第85届奥斯卡金像奖(2013)
  最佳动画长片(提名) 瑞奇·摩尔
  第70届金球奖(2013)
  电影类 最佳动画长片(提名)
  第40届动画安妮奖(2013)
  最佳动画长片
  最佳导演 瑞奇·摩尔
  最佳编剧 菲尔·约翰斯顿 / 珍妮弗·李
  最佳配音 艾伦·图代克
  最佳配乐 Jamie Houston / 亨利·杰克曼 / 秋元康 / 亚当·杨
  最佳剪辑(提名)
  最佳分镜(提名)
  最佳角色设计(提名) Minkyu Lee
  最佳动画效果(提名)
  第84届美国国家评论协会奖(2013)
  最佳动画片
  第18届美国评论家选择电影奖(2013)
  最佳动画片
  第17届金卫星奖(2012)
  电影部门 最佳动画片(提名)
  第11届华盛顿影评人协会奖(2012)
  最佳动画片(提名)
  第17届圣地亚哥影评人协会奖(2012)
  最佳动画片(提名)
  第25届芝加哥影评人协会奖(2012)
  最佳动画片(提名)
  第12届凤凰城影评人协会奖(2012)
  最佳原创歌曲(提名) 亚当·杨
  最佳动画片
  第3届豆瓣电影鑫像奖(2013)
  鑫豆单元 最佳动画长片








  1. Video
  2. Video
  3. ID : 1
  4. Format : AVC
  5. Format/Info : Advanced Video Codec
  6. Format profile : High@L4.1
  7. Format settings : CABAC / 5 Ref Frames
  8. Format settings, CABAC : Yes
  9. Format settings, ReFrames : 5 frames
  10. Codec ID : V_MPEG4/ISO/AVC
  11. Duration : 1 h 41 min
  12. Bit rate : 12.6 Mb/s
  13. Width : 1 920 pixels
  14. Height : 804 pixels
  15. Display aspect ratio : 2.40:1
  16. Frame rate mode : Constant
  17. Frame rate : 23.976 (24000/1001) FPS
  18. Color space : YUV
  19. Chroma subsampling : 4:2:0
  20. Bit depth : 8 bits
  21. Scan type : Progressive
  22. Bits/(Pixel*Frame) : 0.339
  23. Stream size : 8.89 GiB (70%)
  24. Title : Wreck-It.Ralph.2012.1080p.BluRay.x264.TrueHD.7.1.Atmos-SWTYBLZ
  25. Writing library : x264 core 157 r2935 545de2f
  26. Encoding settings : cabac=1 / ref=5 / deblock=1:1:1 / analyse=0x3:0x133 / me=umh / subme=10 / psy=1 / psy_rd=0.40:0.00 / mixed_ref=1 / me_range=48 / chroma_me=1 / trellis=2 / 8x8dct=1 / cqm=0 / deadzone=21,11 / fast_pskip=1 / chroma_qp_offset=-2 / threads=25 / lookahead_threads=6 / sliced_threads=0 / nr=0 / decimate=0 / interlaced=0 / bluray_compat=0 / constrained_intra=0 / bframes=10 / b_pyramid=2 / b_adapt=2 / b_bias=0 / direct=3 / weightb=1 / open_gop=0 / weightp=2 / keyint=250 / keyint_min=23 / scenecut=40 / intra_refresh=0 / rc_lookahead=60 / rc=crf / mbtree=1 / crf=10.0 / qcomp=0.60 / qpmin=0 / qpmax=69 / qpstep=4 / ip_ratio=1.40 / aq=1:0.60
  27. Default : Yes
  28. Forced : No

  29. Audio #1
  30. ID : 2
  31. Format : MLP FBA 16-ch
  32. Format/Info : Meridian Lossless Packing FBA with 16-channel presentation
  33. Commercial name : Dolby TrueHD with Dolby Atmos
  34. Codec ID : A_TRUEHD
  35. Duration : 1 h 41 min
  36. Bit rate mode : Variable
  37. Bit rate : 4 598 kb/s
  38. Maximum bit rate : 5 742 kb/s
  39. Channel(s) : 8 channels
  40. Channel layout : L R C LFE Ls Rs Lb Rb
  41. Sampling rate : 48.0 kHz
  42. Frame rate : 1 200.000 FPS (40 SPF)
  43. Compression mode : Lossless
  44. Stream size : 3.25 GiB (26%)
  45. Title : Wreck-It.Ralph.2012.1080p.BluRay.x264.TrueHD.7.1.Atmos-SWTYBLZ
  46. Language : English
  47. Default : Yes
  48. Forced : No
  49. Number of dynamic objects : 13
  50. Bed channel count : 1 channel
  51. Bed channel configuration : LFE

  52. Audio #2
  53. ID : 3
  54. Format : AC-3
  55. Format/Info : Audio Coding 3
  56. Commercial name : Dolby Digital
  57. Codec ID : A_AC3
  58. Duration : 1 h 41 min
  59. Bit rate mode : Constant
  60. Bit rate : 640 kb/s
  61. Channel(s) : 6 channels
  62. Channel layout : L R C LFE Ls Rs
  63. Sampling rate : 48.0 kHz
  64. Frame rate : 31.250 FPS (1536 SPF)
  65. Bit depth : 16 bits
  66. Compression mode : Lossy
  67. Stream size : 463 MiB (4%)
  68. Title : Wreck-It.Ralph.2012.1080p.BluRay.x264.TrueHD.7.1.Atmos-SWTYBLZ
  69. Language : English
  70. Service kind : Complete Main
  71. Default : No
  72. Forced : No

  73. Text #1
  74. ID : 4
  75. Format : UTF-8
  76. Codec ID : S_TEXT/UTF8
  77. Codec ID/Info : UTF-8 Plain Text
  78. Duration : 1 h 40 min
  79. Bit rate : 68 b/s
  80. Count of elements : 1646
  81. Stream size : 50.3 KiB (0%)
  82. Title : English-SRT
  83. Language : English
  84. Default : Yes
  85. Forced : No

  86. Text #2
  87. ID : 5
  88. Format : UTF-8
  89. Codec ID : S_TEXT/UTF8
  90. Codec ID/Info : UTF-8 Plain Text
  91. Duration : 1 h 32 min
  92. Bit rate : 67 b/s
  93. Count of elements : 1494
  94. Stream size : 45.6 KiB (0%)
  95. Title : English-SDH-SRT
  96. Language : English
  97. Default : No
  98. Forced : No

  99. Text #3
  100. ID : 6
  101. Format : PGS
  102. Muxing mode : zlib
  103. Codec ID : S_HDMV/PGS
  104. Codec ID/Info : Picture based subtitle format used on BDs/HD-DVDs
  105. Duration : 1 h 40 min
  106. Bit rate : 47.5 kb/s
  107. Count of elements : 3748
  108. Stream size : 34.0 MiB (0%)
  109. Title : English-PGS
  110. Language : English
  111. Default : No
  112. Forced : No

  113. Text #4
  114. ID : 7
  115. Format : PGS
  116. Muxing mode : zlib
  117. Codec ID : S_HDMV/PGS
  118. Codec ID/Info : Picture based subtitle format used on BDs/HD-DVDs
  119. Duration : 1 h 32 min
  120. Bit rate : 41.8 kb/s
  121. Count of elements : 2989
  122. Stream size : 27.6 MiB (0%)
  123. Title : English-SDH-PGS
  124. Language : English
  125. Default : No
  126. Forced : No

  127. Text #5
  128. ID : 8
  129. Format : PGS
  130. Muxing mode : zlib
  131. Codec ID : S_HDMV/PGS
  132. Codec ID/Info : Picture based subtitle format used on BDs/HD-DVDs
  133. Duration : 1 h 34 min
  134. Bit rate : 42.9 kb/s
  135. Count of elements : 3107
  136. Stream size : 28.9 MiB (0%)
  137. Title : French-PGS
  138. Language : French
  139. Default : No
  140. Forced : No

  141. Text #6
  142. ID : 9
  143. Format : PGS
  144. Muxing mode : zlib
  145. Codec ID : S_HDMV/PGS
  146. Codec ID/Info : Picture based subtitle format used on BDs/HD-DVDs
  147. Duration : 1 h 34 min
  148. Bit rate : 39.2 kb/s
  149. Count of elements : 2657
  150. Stream size : 26.4 MiB (0%)
  151. Title : Spanish-PGS
  152. Language : Spanish
  153. Default : No
  154. Forced : No

  155. Text #7
  156. ID : 10
  157. Format : PGS
  158. Muxing mode : zlib
  159. Codec ID : S_HDMV/PGS
  160. Codec ID/Info : Picture based subtitle format used on BDs/HD-DVDs
  161. Duration : 1 h 32 min
  162. Bit rate : 33.3 kb/s
  163. Count of elements : 2757
  164. Stream size : 22.0 MiB (0%)
  165. Title : Japanese-PGS
  166. Language : Japanese
  167. Default : No
  168. Forced : No

  169. Text #8
  170. ID : 11
  171. Format : PGS
  172. Muxing mode : zlib
  173. Codec ID : S_HDMV/PGS
  174. Codec ID/Info : Picture based subtitle format used on BDs/HD-DVDs
  175. Duration : 1 h 34 min
  176. Bit rate : 22.0 kb/s
  177. Count of elements : 2716
  178. Stream size : 14.8 MiB (0%)
  179. Title : Korean-PGS
  180. Language : Korean
  181. Default : No
  182. Forced : No

  183. Text #9
  184. ID : 12
  185. Format : PGS
  186. Muxing mode : zlib
  187. Codec ID : S_HDMV/PGS
  188. Codec ID/Info : Picture based subtitle format used on BDs/HD-DVDs
  189. Duration : 1 h 32 min
  190. Bit rate : 28.7 kb/s
  191. Count of elements : 3212
  192. Stream size : 19.0 MiB (0%)
  193. Title : Chinese-PGS
  194. Language : Chinese
  195. Default : No
  196. Forced : No

  197. Text #10
  198. ID : 13
  199. Format : PGS
  200. Muxing mode : zlib
  201. Codec ID : S_HDMV/PGS
  202. Codec ID/Info : Picture based subtitle format used on BDs/HD-DVDs
  203. Duration : 1 h 32 min
  204. Bit rate : 33.1 kb/s
  205. Count of elements : 3799
  206. Stream size : 21.9 MiB (0%)
  207. Title : Chinese-PGS
  208. Language : Chinese
  209. Default : No
  210. Forced : No

  211. Text #11
  212. ID : 14
  213. Format : PGS
  214. Muxing mode : zlib
  215. Codec ID : S_HDMV/PGS
  216. Codec ID/Info : Picture based subtitle format used on BDs/HD-DVDs
  217. Duration : 1 h 34 min
  218. Bit rate : 1 021 b/s
  219. Count of elements : 120
  220. Stream size : 705 KiB (0%)
  221. Title : French-PGS
  222. Language : French
  223. Default : No
  224. Forced : No

  225. Text #12
  226. ID : 15
  227. Format : PGS
  228. Muxing mode : zlib
  229. Codec ID : S_HDMV/PGS
  230. Codec ID/Info : Picture based subtitle format used on BDs/HD-DVDs
  231. Duration : 1 h 34 min
  232. Bit rate : 765 b/s
  233. Count of elements : 100
  234. Stream size : 528 KiB (0%)
  235. Title : Spanish-PGS
  236. Language : Spanish
  237. Default : No
  238. Forced : No

  239. Text #13
  240. ID : 16
  241. Format : PGS
  242. Muxing mode : zlib
  243. Codec ID : S_HDMV/PGS
  244. Codec ID/Info : Picture based subtitle format used on BDs/HD-DVDs
  245. Duration : 1 h 40 min
  246. Bit rate : 137 b/s
  247. Count of elements : 54
  248. Stream size : 101 KiB (0%)
  249. Title : Japanese-PGS
  250. Language : Japanese
  251. Default : No
  252. Forced : No

  253. Text #14
  254. ID : 17
  255. Format : PGS
  256. Muxing mode : zlib
  257. Codec ID : S_HDMV/PGS
  258. Codec ID/Info : Picture based subtitle format used on BDs/HD-DVDs
  259. Duration : 1 h 34 min
  260. Bit rate : 728 b/s
  261. Count of elements : 150
  262. Stream size : 503 KiB (0%)
  263. Title : Korean-PGS
  264. Language : Korean
  265. Default : No
  266. Forced : No

  267. Text #15
  268. ID : 18
  269. Format : PGS
  270. Muxing mode : zlib
  271. Codec ID : S_HDMV/PGS
  272. Codec ID/Info : Picture based subtitle format used on BDs/HD-DVDs
  273. Duration : 1 h 32 min
  274. Bit rate : 1 080 b/s
  275. Count of elements : 145
  276. Stream size : 732 KiB (0%)
  277. Title : Chinese-PGS
  278. Language : Chinese
  279. Default : No
  280. Forced : No

  281. Menu
  282. 00:00:00.000 : :Chapter 1
  283. 00:07:12.974 : :Chapter 2
  284. 00:16:35.744 : :Chapter 3
  285. 00:27:08.334 : :Chapter 4
  286. 00:37:26.786 : :Chapter 5
  287. 00:44:47.517 : :Chapter 6
  288. 00:48:45.964 : :Chapter 7
  289. 00:51:36.843 : :Chapter 8
  290. 00:58:56.866 : :Chapter 9
  291. 01:09:08.727 : :Chapter 10
  292. 01:13:40.457 : :Chapter 11
  293. 01:15:57.635 : :Chapter 12
  294. 01:18:53.811 : :Chapter 13
  295. 01:21:54.575 : :Chapter 14
  296. 01:27:26.198 : :Chapter 15
  297. 01:33:11.376 : :Chapter 16

复制代码












下载软件:115,ut,bt彗星,百度离线,迅雷极速.(以上不会自行百度)
游客,如果您要查看本帖隐藏内容请回复




You may like the following videos













蓝光重编码电影



回复

使用道具 举报

天王巨星

高清币
11
金钱
2656
鲜花
0
在线时间
304 小时
最后登录
2018-11-13
发表于 5 天前 | 显示全部楼层
thank you very much
回复 支持 反对

使用道具 举报

人气偶像

高清币
7
金钱
1127
鲜花
0
在线时间
175 小时
最后登录
2018-11-13
发表于 5 天前 | 显示全部楼层

楼主太厉害了!楼主,电影应该很好看我觉得中国高清论坛真是个好地方!
回复 支持 反对

使用道具 举报

永恒神话

高清币
11929
金钱
23265
鲜花
0
在线时间
2026 小时
最后登录
2018-11-13
发表于 5 天前 | 显示全部楼层

楼主太厉害了!楼主,电影应该很好看我觉得中国高清论坛真是个好地方!
回复 支持 反对

使用道具 举报

人气偶像

高清币
7
金钱
1127
鲜花
0
在线时间
175 小时
最后登录
2018-11-13
发表于 5 天前 | 显示全部楼层

楼主太厉害了!楼主,电影应该很好看我觉得中国高清论坛真是个好地方!
回复 支持 反对

使用道具 举报

天王巨星

高清币
131
金钱
2213
鲜花
0
在线时间
286 小时
最后登录
2018-11-13
发表于 5 天前 | 显示全部楼层
楼主发贴辛苦了,谢谢楼主分享!
回复 支持 反对

使用道具 举报

人气偶像

高清币
7
金钱
1127
鲜花
0
在线时间
175 小时
最后登录
2018-11-13
发表于 5 天前 | 显示全部楼层

论坛不能没有像楼主这样的人才啊!我会一直支持中国高清论坛
回复 支持 反对

使用道具 举报

永恒神话

高清币
7196
金钱
13588
鲜花
0
在线时间
1378 小时
最后登录
2018-11-13
发表于 5 天前 | 显示全部楼层
楼主发贴辛苦了,谢谢楼主分享!我觉得中国高清论坛是注册对了!
回复 支持 反对

使用道具 举报

知名艺人

高清币
32
金钱
329
鲜花
0
在线时间
80 小时
最后登录
2018-11-13
发表于 5 天前 | 显示全部楼层

这东西我收了!谢谢楼主!中国高清论坛真好!
回复 支持 反对

使用道具 举报

永恒神话

高清币
5516
金钱
12603
鲜花
0
在线时间
695 小时
最后登录
2018-11-13
发表于 5 天前 | 显示全部楼层

这个帖子不回对不起自己!我想我是一天也不能离开中国高清论坛
回复 支持 反对

使用道具 举报

懒得打字嘛,点击右侧快捷回复 【右侧内容,后台自定义】
您需要登录后才可以回帖 登录 | 立即注册

本版积分规则

QQ|手机版|小黑屋|中国高清论坛 ( 黔ICP备16007815号-1 )

GMT+8, 2018-11-14 08:25 , Processed in 0.092584 second(s), 30 queries .

Powered by Discuz! X3.4

© 2001-2017 Comsenz Inc.

快速回复 返回顶部 返回列表