请选择 进入手机版 | 继续访问电脑版

中国高清论坛

 找回密码
 立即注册
搜索
查看: 3569|回复: 1284

[动作片] 影 [4K/普通话/中英] Shadow.2018.4K.2160p.WEB-DL.X264.AAC-Lieqiwang 4.83 GiB

  [复制链接]

区域版主

高清币
13907
金钱
32695
鲜花
-88
在线时间
10625 小时
最后登录
2018-12-19
发表于 2018-11-30 17:23:54 | 显示全部楼层 |阅读模式


◎译  名 影/三国·荆州/荆州保卫战
◎片  名 Shadow
◎年  代 2018
◎国  家 中国大陆
◎类  别 剧情/动作/武侠/古装
◎语  言 普通话
◎IMDb评分 7.3/10 from 730 users
◎IMDB链接 http://www.imdb.com/title/tt6864046
◎片  长 1 h 55 min
◎导  演 张艺谋 Yimou Zhang
◎主  演 邓超 Chao Deng
       孙俪 Li Sun
       郑恺 Kai Zheng
       王千源 Qianyuan Wang
       王景春 Jingchun Wang
       胡军 Jun Hu
       关晓彤 Xiaotong Guan
       吴磊 Lei Wu



◎简  介   

  这是一个关于替身的故事。替身自古有之,人称“影子”。有刺杀,就有影子,影子必须在危急关头挺身而出,替主人博回一命;影子又必须与真身互为一体,令旁人真假难辨如同孪生。若无真身,影子何在?关于影子的来龙去脉,真身从来忌讳莫深,不愿提及而令真相扑朔迷离。是愿做真身,还是愿做影子?是明处做人,还是暗处做鬼,换作是你,如何选择?

花絮

.在拍摄过程中,张艺谋采用了水墨写意留白的形式,在影片中大量使用中国元素。为此,他与团队成员也几经艰辛。

.为达到最佳水墨风效果,张艺谋导演采用超高清5K实拍打戏,用雕刻般的清晰影像诠释高级灰质感。

.电影从古画中提取山水线条及色彩,统筹在高级灰色调中,组成不同场景。大殿、卧榻、屋檐甚至到兵器的画风细腻厚重,美术团队置景时深读剧本,与张艺谋导演沟通超过半年,几经修改最终打造完成。

.邓超在这部戏里一人分饰两角,为了呈现两个角色的差异巨大,他先增肌20斤再迅速减重40斤,险些在片场晕倒。

.孙俪不仅为塑造角色苦练古筝琴瑟,更透露为配合5K拍摄全程淡妆出镜近乎素颜。

.《三国·荆州》是张艺谋最初关于《影》的灵感来源。

获奖情况   

台湾电影金马奖(2018;第55届)
获奖
·金马奖-最佳导演奖张艺谋 Yimou Zhang  
·金马奖-最佳美术设计奖马光荣 Horace Ma  
·金马奖-最佳化妆和服装设计奖
提名
·金马奖-最佳剧情片
·金马奖-最佳男主角邓超 Chao Deng  
·金马奖-最佳女主角孙俪 Betty Sun  
·金马奖-最佳改编剧本张艺谋 Yimou Zhang  
·金马奖-最佳摄影奖赵小丁 Xiaoding Zhao  
·金马奖-最佳动作设计
·金马奖-最佳视觉效果奖
·金马奖-最佳音效
·金马奖-最佳电影原创音乐捞仔 Zai Lao  


  1. General
  2. Complete name                  : D:\迅雷下载\影.Shadow.2018.4K.2160p.WEB-DL.X264.AAC-Lieqiwang\影.Shadow.2018.4K.2160p.WEB-DL.X264.AAC-Lieqiwang.mp4
  3. Format                         : MPEG-4
  4. Format profile                 : Base Media
  5. Codec ID                       : isom (isom/iso2/avc1/mp41)
  6. File size                      : 4.83 GiB
  7. Duration                       : 1 h 55 min
  8. Overall bit rate               : 5 983 kb/s
  9. Writing application            : Lavf57.41.100
  10. IsTruncated                    : Yes
  11. FileExtension_Invalid          : mov mp4 m4v m4a m4b m4p 3ga 3gpa 3gpp 3gp 3gpp2 3g2 k3g jpm jpx mqv ismv isma ismt f4a f4b f4v

  12. Video
  13. ID                             : 1
  14. Format                         : AVC
  15. Format/Info                    : Advanced Video Codec
  16. Format profile                 : High@L5.1
  17. Format settings                : CABAC / 3 Ref Frames
  18. Format settings, CABAC         : Yes
  19. Format settings, ReFrames      : 3 frames
  20. Codec ID                       : avc1
  21. Codec ID/Info                  : Advanced Video Coding
  22. Duration                       : 1 h 55 min
  23. Bit rate                       : 5 784 kb/s
  24. Width                          : 3 840 pixels
  25. Height                         : 1 576 pixels
  26. Display aspect ratio           : 2.40:1
  27. Frame rate mode                : Constant
  28. Frame rate                     : 25.000 FPS
  29. Color space                    : YUV
  30. Chroma subsampling             : 4:2:0
  31. Bit depth                      : 8 bits
  32. Scan type                      : Progressive
  33. Bits/(Pixel*Frame)             : 0.038
  34. Stream size                    : 4.67 GiB (97%)
  35. Color range                    : Limited
  36. Color primaries                : BT.709
  37. Transfer characteristics       : BT.709
  38. Matrix coefficients            : BT.709
  39. Codec configuration box        : avcC

  40. Audio
  41. ID                             : 2
  42. Format                         : AAC LC
  43. Format/Info                    : Advanced Audio Codec Low Complexity
  44. Codec ID                       : mp4a-40-2
  45. Duration                       : 1 h 55 min
  46. Bit rate mode                  : Constant
  47. Bit rate                       : 192 kb/s
  48. Channel(s)                     : 2 channels
  49. Channel layout                 : L R
  50. Sampling rate                  : 44.1 kHz
  51. Frame rate                     : 43.066 FPS (1024 SPF)
  52. Compression mode               : Lossy
  53. Stream size                    : 157 MiB (3%)
  54. Default                        : Yes
  55. Alternate group                : 1

复制代码






游客,如果您要查看本帖隐藏内容请回复
回复

使用道具 举报

金鸡奖主角

高清币
90
金钱
4639
鲜花
0
在线时间
401 小时
最后登录
2018-12-18
发表于 2018-11-30 17:24:30 | 显示全部楼层

既然你诚信诚意的推荐了,那我就勉为其难的看看吧!中国高清论坛不走平凡路。
回复 支持 反对

使用道具 举报

永恒神话

高清币
7343
金钱
9238
鲜花
0
在线时间
555 小时
最后登录
2018-12-19
发表于 2018-11-30 17:26:33 | 显示全部楼层
楼主发贴辛苦了,谢谢楼主分享!我觉得中国高清论坛是注册对了!
回复 支持 反对

使用道具 举报

金鸡奖主角

高清币
4
金钱
4546
鲜花
0
在线时间
1762 小时
最后登录
2018-12-19
发表于 2018-11-30 17:26:43 | 显示全部楼层
感谢楼主分享!!!感谢楼主分享!!!
回复 支持 反对

使用道具 举报

跑龙套

高清币
1
金钱
87
鲜花
0
在线时间
11 小时
最后登录
2018-12-16
发表于 2018-11-30 17:26:49 | 显示全部楼层
楼主发贴辛苦了,谢谢楼主分享!我觉得中国高清论坛是注册对了!
回复 支持 反对

使用道具 举报

人气偶像

高清币
0
金钱
689
鲜花
0
在线时间
124 小时
最后登录
2018-12-19
发表于 2018-11-30 17:27:05 | 显示全部楼层
efafsfsfsf
回复 支持 反对

使用道具 举报

人气偶像

高清币
0
金钱
689
鲜花
0
在线时间
124 小时
最后登录
2018-12-19
发表于 2018-11-30 17:27:29 | 显示全部楼层
ssfdsdfsfdsfdsf
回复 支持 反对

使用道具 举报

人气偶像

高清币
205
金钱
1420
鲜花
0
在线时间
978 小时
最后登录
2018-12-19
发表于 2018-11-30 17:27:36 | 显示全部楼层

这个帖子不回对不起自己!我想我是一天也不能离开中国高清论坛
回复 支持 反对

使用道具 举报

知名艺人

高清币
64
金钱
290
鲜花
0
在线时间
16 小时
最后登录
2018-12-11
发表于 2018-11-30 17:27:49 | 显示全部楼层
楼主发贴辛苦了,谢谢楼主分享!我觉得中国高清论坛是注册对了!

回复 支持 反对

使用道具 举报

金鸡奖主角

高清币
1726
金钱
3406
鲜花
0
在线时间
911 小时
最后登录
2018-12-19
发表于 2018-11-30 17:28:19 | 显示全部楼层
楼主发贴辛苦了,谢谢楼主分享!我觉得中国高清论坛是注册对了!
回复 支持 反对

使用道具 举报

懒得打字嘛,点击右侧快捷回复 【右侧内容,后台自定义】
您需要登录后才可以回帖 登录 | 立即注册

本版积分规则

QQ|手机版|小黑屋|中国高清论坛 ( 黔ICP备16007815号-1 )

GMT+8, 2018-12-19 15:56 , Processed in 0.112876 second(s), 30 queries .

Powered by Discuz! X3.4

© 2001-2017 Comsenz Inc.

快速回复 返回顶部 返回列表