请选择 进入手机版 | 继续访问电脑版

中国高清论坛

 找回密码
 立即注册
搜索
查看: 3721|回复: 898

[剧情片] 欲望酒店 [内嵌中英字幕] Hotel.Desire.2011.DE.BluRay.1920x816p.x264.DTS-KOOK

  [复制链接]

区域版主

高清币
13907
金钱
32695
鲜花
-88
在线时间
10625 小时
最后登录
2018-12-19
发表于 2018-12-1 13:35:47 | 显示全部楼层 |阅读模式


片   名 Hotel Desire
◎译   名 欲望酒店 / 欲望旅馆
◎年   代 2011
◎国   家 德国
◎类   别 剧情
◎语   言 德语
◎上映日 期 2011-12-07(德国)
◎字   幕 中英双字/繁英双字/简体字幕/繁体字幕/英文字幕
◎IMDB 评分  5.8/10 from 2002 users
◎豆瓣 评分  6.9/10 from 4323 users
◎视频尺 寸  1920x1080p
◎片   长 00.39.15
◎导   演 谢尔盖·摩亚
◎编   剧  谢尔盖·摩亚
◎主   演 Saralisa Volm / 克雷蒙斯·施伊克 / Jan Gregor Kremp / 赫伯特·克瑙普




◎简  介


  这是七月以来最热的一天,单身母亲托尼(Saralisa Volm 饰)匆忙洗漱后,便送七岁的儿子去赶车,儿子将到法国的父亲那里度过夏令营。当焦头烂额的托尼赶到她所工作的酒店,虽然已经是干了五年的老员工了,但前台小生还是拿迟到为难她。生活和工作的小磕绊并非托尼的全部烦恼,真正令她愁眉不展的是,自从与丈夫分开后,她已经七年没有过性生活了,男人似乎都选择对一个带着小孩的女人视而不见,尽管托尼风韵犹存。别无他法,托尼只好继续如往日般打扫客房,当打扫到最后一间客房时,这里似乎住着一位画家,就当托尼以为刚淋浴出来的他会对贸然闯入的自己发怒时,她却发现眼前这个性感有趣的男人是位盲人……





※※※※※※※ 参数信息 ※※※※※※※


General
Unique ID                      : 245300120957989067931517060672955105014 (0xB88B15B784112DD5905067A0945C3EF6)

Format                         : Matroska
Format version                 : Version 4 / Version 2
File size                      : 3.52 GiB
Duration                       : 39 min
Overall bit rate               : 12.8 Mb/s
Movie name                     : KOOK
Encoded date                   : UTC 2018-11-30 00:02:03
Writing application            : mkvmerge v9.4.2 ('So High') 64bit
Writing library                : libebml v1.3.4 + libmatroska v1.4.5
Attachments                    : fzgljw.ttf / STKAITI.TTF / 正式海报.jpg

Video
ID                             : 1
Format                         : AVC
Format/Info                    : Advanced Video Codec
Format profile                 : High@L4.1
Format settings, CABAC         : Yes
Format settings, ReFrames      : 5 frames
Codec ID                       : V_MPEG4/ISO/AVC
Duration                       : 39 min
Bit rate                       : 11.3 Mb/s
Width                          : 1 920 pixels
Height                         : 816 pixels
Display aspect ratio           : 2.35:1
Frame rate mode                : Constant
Frame rate                     : 23.976 (24000/1001) FPS
Color space                    : YUV
Chroma subsampling             : 4:2:0
Bit depth                      : 8 bits
Scan type                      : Progressive
Bits/(Pixel*Frame)             : 0.299
Stream size                    : 3.08 GiB (88%)
Title                          : Hotel.Desire.2011.BluRay.1080p.x264.DTS-MySilu
Writing library                : x264 core 125 r2200+666+31 2d8fe44 tMod+MixAQ [8-bit@4:2:0 X86_64]
Encoding settings              : cabac=1 / ref=5 / deblock=1:-3:-3 / analyse=0x3:0x113 / me=umh / subme=11 / psy=1 / fade_compensate=0.20 / psy_rd=1.10:0.10 / mixed_ref=1 / me_range=48 / chroma_me=1 / trellis=2 / 8x8dct=1 / cqm=0 / deadzone=21,11 / fast_pskip=0 / chroma_qp_offset=-4 / threads=12 / lookahead_threads=2 / sliced_threads=0 / nr=0 / decimate=1 / interlaced=0 / bluray_compat=0 / constrained_intra=0 / fgo=3 / bframes=8 / b_pyramid=2 / b_adapt=2 / b_bias=0 / direct=3 / weightb=1 / open_gop=0 / weightp=2 / keyint=360 / keyint_min=1 / scenecut=40 / intra_refresh=0 / rc_lookahead=240 / rc=2pass / mbtree=1 / bitrate=11250 / ratetol=1.0 / qcomp=0.60 / qpmin=0 / qpmax=69 / qpstep=4 / cplxblur=20.0 / qblur=0.5 / vbv_maxrate=40000 / vbv_bufsize=30000 / nal_hrd=none / ip_ratio=1.40 / aq=4 / aq-strength=0.90 / aq-sensitivity=10.00 / aq-ifactor=1.00 / aq-pfactor=1.00 / aq-bfactor=1.00 / aq2=0
Language                       : English
Default                        : Yes
Forced                         : No

Audio
ID                             : 2
Format                         : DTS
Format/Info                    : Digital Theater Systems
Mode                           : 16
Format settings, Endianness    : Big
Codec ID                       : A_DTS
Duration                       : 39 min
Bit rate mode                  : Constant
Bit rate                       : 1 509 kb/s
Channel(s)                     : 6 channels
Channel positions              : Front: L C R, Side: L R, LFE
Sampling rate                  : 48.0 kHz
Frame rate                     : 93.750 FPS (512 spf)
Bit depth                      : 24 bits
Compression mode               : Lossy
Stream size                    : 424 MiB (12%)
Title                          : Ger DTS5.1 1.5M
Language                       : German
Default                        : Yes
Forced                         : No

Text #1
ID                             : 3
Format                         : ASS
Codec ID                       : S_TEXT/ASS
Codec ID/Info                  : Advanced Sub Station Alpha
Duration                       : 36 min
Bit rate                       : 137 b/s
Count of elements              : 218
Compression mode               : Lossless
Stream size                    : 37.3 KiB (0%)
Title                          : 简英字幕
Language                       : Chinese
Default                        : Yes
Forced                         : No

Text #2
ID                             : 4
Format                         : ASS
Codec ID                       : S_TEXT/ASS
Codec ID/Info                  : Advanced Sub Station Alpha
Duration                       : 36 min
Bit rate                       : 137 b/s
Count of elements              : 218
Compression mode               : Lossless
Stream size                    : 37.3 KiB (0%)
Title                          : 繁英字幕
Language                       : Chinese
Default                        : No
Forced                         : No

Text #3
ID                             : 5
Format                         : ASS
Codec ID                       : S_TEXT/ASS
Codec ID/Info                  : Advanced Sub Station Alpha
Duration                       : 36 min
Bit rate                       : 69 b/s
Count of elements              : 218
Compression mode               : Lossless
Stream size                    : 18.7 KiB (0%)
Title                          : 简体字幕
Language                       : Chinese
Default                        : No
Forced                         : No

Text #4
ID                             : 6
Format                         : ASS
Codec ID                       : S_TEXT/ASS
Codec ID/Info                  : Advanced Sub Station Alpha
Duration                       : 36 min
Bit rate                       : 69 b/s
Count of elements              : 218
Compression mode               : Lossless
Stream size                    : 18.7 KiB (0%)
Title                          : 繁体字幕
Language                       : Chinese
Default                        : No
Forced                         : No

Text #5
ID                             : 7
Format                         : ASS
Codec ID                       : S_TEXT/ASS
Codec ID/Info                  : Advanced Sub Station Alpha
Duration                       : 36 min
Bit rate                       : 95 b/s
Count of elements              : 216
Compression mode               : Lossless
Stream size                    : 26.0 KiB (0%)
Title                          : 英文字幕
Language                       : English
Default                        : No
Forced                         : No


游客,如果您要查看本帖隐藏内容请回复
回复

使用道具 举报

禁止访问

高清币
25
金钱
41
鲜花
0
在线时间
7 小时
最后登录
2018-12-15
发表于 2018-12-6 01:13:15 | 显示全部楼层
提示: 作者被禁止或删除 内容自动屏蔽
回复 支持 1 反对 0

使用道具 举报

人气偶像

高清币
143
金钱
558
鲜花
0
在线时间
88 小时
最后登录
2018-12-19
发表于 2018-12-1 13:38:28 | 显示全部楼层

既然你诚信诚意的推荐了,那我就勉为其难的看看吧!中国高清论坛不走平凡路。
回复 支持 反对

使用道具 举报

跑龙套

高清币
6
金钱
141
鲜花
0
在线时间
29 小时
最后登录
2018-12-16
发表于 2018-12-1 13:42:52 | 显示全部楼层

这东西我收了!谢谢楼主!中国高清论坛真好!
回复 支持 反对

使用道具 举报

永恒神话

高清币
11368
金钱
20191
鲜花
0
在线时间
1265 小时
最后登录
2018-12-17
发表于 2018-12-1 13:42:54 | 显示全部楼层
楼主发贴辛苦了,谢谢楼主分享!
回复 支持 反对

使用道具 举报

金鸡奖主角

高清币
90
金钱
4639
鲜花
0
在线时间
401 小时
最后登录
2018-12-18
发表于 2018-12-1 13:45:46 | 显示全部楼层

既然你诚信诚意的推荐了,那我就勉为其难的看看吧!中国高清论坛不走平凡路。
回复 支持 反对

使用道具 举报

金鸡奖主角

高清币
878
金钱
2362
鲜花
0
在线时间
189 小时
最后登录
2018-12-15
发表于 2018-12-1 13:50:29 | 显示全部楼层
楼主发贴辛苦了,谢谢楼主分享!我觉得中国高清论坛是注册对了!
回复 支持 反对

使用道具 举报

天王巨星

高清币
26
金钱
3006
鲜花
0
在线时间
732 小时
最后登录
2018-12-18
发表于 2018-12-1 13:51:30 | 显示全部楼层

我看不错噢 谢谢楼主!中国高清论坛越来越好!
回复 支持 反对

使用道具 举报

人气偶像

高清币
110
金钱
822
鲜花
0
在线时间
177 小时
最后登录
2018-12-17
发表于 2018-12-1 13:52:36 | 显示全部楼层

这个帖子不回对不起自己!我想我是一天也不能离开中国高清论坛
回复 支持 反对

使用道具 举报

金鸡奖主角

高清币
1504
金钱
3739
鲜花
0
在线时间
1205 小时
最后登录
2018-12-19
发表于 2018-12-1 13:55:31 | 显示全部楼层

这个帖子不回对不起自己!我想我是一天也不能离开中国高清论坛
回复 支持 反对

使用道具 举报

人气偶像

高清币
0
金钱
1250
鲜花
0
在线时间
224 小时
最后登录
2018-12-16
发表于 2018-12-1 13:57:17 | 显示全部楼层
楼主发贴辛苦了,谢谢楼主分享!我觉得中国高清论坛是注册对了!
回复 支持 反对

使用道具 举报

懒得打字嘛,点击右侧快捷回复 【右侧内容,后台自定义】
您需要登录后才可以回帖 登录 | 立即注册

本版积分规则

QQ|手机版|小黑屋|中国高清论坛 ( 黔ICP备16007815号-1 )

GMT+8, 2018-12-19 15:03 , Processed in 0.101769 second(s), 31 queries .

Powered by Discuz! X3.4

© 2001-2017 Comsenz Inc.

快速回复 返回顶部 返回列表